<?xml version="1.0" standalone="no"?>
<!DOCTYPE svg PUBLIC "-//W3C//DTD SVG 1.1//EN" "http://www.w3.org/Graphics/SVG/1.1/DTD/svg11.dtd" >
<svg xmlns="http://www.w3.org/2000/svg">
<metadata>Generated by IcoMoon</metadata>
<defs>
<font id="untitledui" horiz-adv-x="1024">
<font-face units-per-em="1024" ascent="960" descent="-64" />
<missing-glyph horiz-adv-x="1024" />
<glyph unicode="&#x20;" horiz-adv-x="512" d="" />
<glyph unicode="&#xe900;" glyph-name="7" d="M394.667 462.080c10.667 0 19.627-9.387 19.627-21.333 0-13.653-11.093-21.333-23.467-21.333h-90.027c-9.387 0-21.76 7.68-21.76 23.467 0 9.813 2.987 16.213 10.667 22.613l46.080 39.68c15.787 13.653 32 26.453 32 42.242 0 10.667-7.253 20.48-26.453 20.48-15.36 0-22.187-5.12-26.453-11.947s-6.827-15.36-19.627-15.36c-9.813 0-17.493 7.68-17.493 20.48 0 28.16 29.013 49.067 64 49.067 47.787 0 64.427-29.44 64.427-58.453 0-29.015-20.48-49.922-32.853-59.735l-37.547-30.293h59.307l-0.427 0.427zM544.427 503.040c10.667 0 20.48-9.387 20.48-20.907s-8.533-20.48-19.2-20.48h-6.4v-25.173c0-10.667-7.253-20.053-19.627-20.053s-19.2 9.387-19.2 20.053v25.173h-55.893c-22.613 0-34.133 11.947-34.133 29.013 0 6.827 1.707 14.507 5.547 22.613l40.533 84.055c3.413 7.68 10.667 12.373 18.773 12.373 16.213 0 25.6-16.213 16.64-33.707l-37.973-72.962h46.507v35.415c0 10.24 7.253 19.2 19.2 19.2s19.627-8.533 19.627-19.2v-35.415h5.12zM526.080 338.782l79.36 207.358c4.267 11.093 14.080 15.36 23.467 11.52 9.387-3.413 13.653-13.227 9.387-24.32l-79.36-207.358c-4.267-11.093-14.080-15.36-23.467-11.52-9.387 3.413-13.653 13.227-9.387 24.32zM720.64 476.169c10.667 0 25.173-3.413 25.173-22.613 0-13.227-7.253-23.467-15.36-32.427-19.627-22.613-34.133-70.4-36.267-105.387-1.28-20.48-10.667-30.293-23.467-30.293s-22.613 9.387-22.613 30.293c0 39.253 33.707 91.733 66.133 117.333h-70.827c-10.667 0-19.627 9.387-19.627 21.333s8.96 21.333 19.627 21.333h76.8l0.427 0.427zM836.689 593.489c65.707 9.813 134.827-26.453 142.507-96.427 4.267-40.107 2.987-119.467 0-160.853-5.973-79.787-66.987-115.2-142.080-107.947-23.467-104.533-119.040-157.013-222.293-145.92-43.52-119.040-222.291-80.64-212.478 46.507 8.96 116.053 174.078 137.387 212.478 27.733 72.107-10.24 141.227 18.347 152.32 96.427-5.12 104.533 8.107 217.6 0.427 320.853-14.080 189.013-221.013 299.52-385.705 203.093-190.293-111.787-104.107-336.64-125.013-513.28-2.133-17.92-12.8-31.573-31.147-34.133-75.093-11.52-170.667 6.4-180.48 96.427-4.267 39.68-3.84 128 0 168.107 6.827 72.96 74.24 109.653 142.507 100.267 22.613 233.813 284.585 365.653 489.811 246.613 87.040-50.773 152.32-145.493 159.573-247.467h-0.427z" />
<glyph unicode="&#xe901;" glyph-name="activity" d="M384 874.667c18.365 0 34.67-11.752 40.477-29.174l215.523-646.568 87.522 262.566c5.807 17.425 22.114 29.175 40.478 29.175h170.667c23.565 0 42.667-19.102 42.667-42.667s-19.102-42.667-42.667-42.667h-139.913l-118.276-354.825c-5.807-17.425-22.114-29.175-40.478-29.175s-34.671 11.75-40.478 29.175l-215.522 646.567-87.523-262.567c-5.807-17.425-22.112-29.175-40.477-29.175h-170.667c-23.564 0-42.667 19.102-42.667 42.667s19.103 42.667 42.667 42.667h139.914l118.275 354.826c5.807 17.423 22.112 29.174 40.477 29.174z" />
<glyph unicode="&#xe902;" glyph-name="activity-heart" d="M149.551 808.545c114.658 97.967 262.304 80.113 362.142-7.136 99.721 87.282 245.794 103.87 361.728 7.51 126.874-105.45 142.11-285.293 44.412-411.010-33.924-43.652-97.041-107.038-160.311-167.373-63.979-61.013-130.483-121.126-172.813-158.899l-0.939-0.836c-6.933-6.191-13.871-12.382-20.267-17.233-7.189-5.449-16.017-11.059-27.277-14.438-15.876-4.762-33.161-4.762-49.037 0-11.26 3.379-20.087 8.99-27.277 14.438-6.396 4.851-13.329 11.038-20.267 17.233l-0.939 0.836c-42.331 37.773-108.833 97.886-172.812 158.899-63.27 60.335-126.39 123.721-160.312 167.373-98.074 126.204-80.055 304.668 43.968 410.636zM509.811 610.825c-5.457 16.371-20.241 27.843-37.453 29.067-17.216 1.223-33.468-8.043-41.186-23.478l-52.208-104.414h-16.297c-23.564 0-42.667-19.102-42.667-42.667s19.103-42.667 42.667-42.667h42.667c16.161 0 30.933 9.131 38.161 23.586l17.937 35.866 52.757-158.276c5.457-16.371 20.241-27.844 37.453-29.069 17.216-1.225 33.468 8.043 41.186 23.479l52.207 104.414h16.299c23.565 0 42.667 19.102 42.667 42.667s-19.102 42.667-42.667 42.667h-42.667c-16.162 0-30.933-9.131-38.161-23.586l-17.937-35.87-52.757 158.281z" />
<glyph unicode="&#xe903;" d="M873.813 392.111c-20.907 33.28-20.053 84.48 2.987 116.053 26.027 35.412 85.76 41.812 80.213 94.292-1.707 15.36-64.427 126.72-76.8 142.080-38.827 49.067-77.227 2.56-115.627-7.253-60.16-15.36-124.16 25.6-131.84 88.747-4.693 38.827 7.253 82.347-49.493 89.173-28.16 2.987-122.453 3.84-148.907-0.853-51.627-9.387-38.828-55.893-43.948-91.307-6.827-49.493-56.746-91.307-106.666-90.453-48.213 0.853-87.040 59.307-133.12 20.053-11.093-9.813-65.707-104.96-73.813-123.307-37.12-82.347 41.387-75.52 72.96-125.439 20.907-33.28 20.053-84.48-2.987-116.053-26.027-35.413-85.76-41.813-80.213-94.293 1.707-17.493 56.747-111.36 69.973-130.987 49.92-74.667 91.733 2.133 150.613 1.28 48.64-0.853 96.426-42.24 103.253-90.453 5.547-39.253-8.107-85.333 50.348-92.16 29.867-3.413 116.48-3.84 145.493 0 63.573 8.96 36.693 78.507 55.040 119.893 15.787 35.84 62.72 63.573 101.547 61.867 46.933-2.56 94.293-65.28 136.96-11.947 11.52 14.507 72.533 121.173 75.52 136.107 12.373 60.587-55.467 63.573-81.493 104.96z" />
<glyph unicode="&#xe904;" d="M583.253 261.116c-59.307 17.067-115.627 48.64-162.56 95.573s-78.507 102.827-95.573 162.56v0.853c-2.56 9.813-4.693 17.068-5.12 27.308 0 11.947 3.84 26.453 9.387 36.693 9.813 17.493 31.147 40.107 49.493 49.493 15.787 8.107 34.56 8.107 50.347 0s33.28-25.6 43.093-40.533c11.947-18.347 11.947-42.24 0-61.015-3.413-5.12-7.68-9.387-13.227-14.933-1.707-1.707-3.413-2.987-2.133-5.547 11.947-25.173 28.587-48.64 49.493-69.547s44.373-37.547 69.547-49.493c2.56-1.28 3.84 0.427 5.547 2.133 5.12 5.547 9.813 9.813 14.933 13.227 18.347 11.947 42.24 11.947 61.013 0 14.507-9.387 32.853-27.307 40.533-43.093 8.107-15.787 8.107-34.56 0-50.347-9.387-18.347-32-39.68-49.493-49.493-10.24-5.547-25.173-9.387-36.693-9.387-10.24 0-17.92 2.133-27.307 5.12h-0.853l-0.427 0.427z" />
<glyph unicode="&#xe905;" glyph-name="airplay" d="M490.031 346.786c14.187 5.188 29.751 5.188 43.938 0 11.217-4.1 18.927-10.948 23.735-15.795 4.271-4.305 8.721-9.651 12.574-14.281 0.243-0.29 0.482-0.576 0.721-0.862l140.459-168.55c0.324-0.388 0.649-0.781 0.977-1.173 6.583-7.898 13.252-15.898 18.108-22.925 4.591-6.652 12.975-19.721 13.235-36.902 0.299-19.669-8.469-38.379-23.765-50.743-13.363-10.799-28.774-12.727-36.821-13.453-8.508-0.772-18.923-0.772-29.205-0.768-0.512 0-1.020 0-1.527 0h-280.916c-0.508 0-1.018 0-1.527 0-10.282-0.004-20.697-0.004-29.206 0.768-8.047 0.725-23.457 2.654-36.821 13.453-15.299 12.365-24.064 31.074-23.767 50.743 0.259 17.182 8.643 30.251 13.236 36.902 4.855 7.027 11.524 15.027 18.109 22.925 0.326 0.393 0.652 0.785 0.978 1.173l140.457 168.55c0.239 0.286 0.478 0.572 0.721 0.866 3.853 4.625 8.307 9.971 12.574 14.276 4.809 4.847 12.518 11.695 23.735 15.795zM735.629 874.667h-447.258c-34.345 0-62.691 0.001-85.782-1.885-23.983-1.96-46.029-6.165-66.737-16.716-32.113-16.362-58.222-42.471-74.584-74.584-10.551-20.707-14.757-42.754-16.716-66.737-1.886-23.091-1.886-51.436-1.885-85.782v-233.925c-0.001-34.347-0.001-62.69 1.885-85.781 1.96-23.983 6.165-46.029 16.716-66.739 16.362-32.111 42.471-58.219 74.584-74.581 16.42-8.367 34.222-12.77 52.343-15.181 7.183-0.96 10.774-1.438 14.269-0.734 3.272 0.661 5.856 1.813 8.533 3.806 2.859 2.129 5.614 6.165 11.124 14.229 0.415 0.606 0.792 1.152 1.127 1.638 7.189 10.406 16.323 21.346 22.262 28.459l142.822 171.383c3.445 4.151 10.301 12.412 17.396 19.558 8.578 8.644 26.758 25.515 55.012 35.84 33.105 12.1 69.423 12.1 102.528 0 28.254-10.325 46.434-27.196 55.014-35.84 7.091-7.147 13.948-15.407 17.395-19.554l0.879-1.062 141.943-170.325c5.939-7.113 15.070-18.048 22.259-28.459 0.337-0.486 0.713-1.033 1.126-1.638 5.513-8.064 8.269-12.096 11.127-14.229 2.675-1.993 5.261-3.145 8.533-3.806 3.494-0.704 7.087-0.222 14.268 0.734 18.116 2.411 35.917 6.814 52.335 15.181 32.111 16.363 58.219 42.47 74.581 74.581 10.551 20.71 14.758 42.756 16.717 66.739 1.886 23.091 1.886 51.435 1.886 85.781v233.925c0 34.345 0 62.691-1.886 85.781-1.958 23.983-6.165 46.029-16.717 66.737-16.363 32.113-42.47 58.222-74.581 74.584-20.71 10.551-42.756 14.757-66.739 16.716-23.091 1.886-51.435 1.886-85.781 1.885z" />
<glyph unicode="&#xe906;" glyph-name="airpods" d="M42.667 634.667c0 120.766 97.9 218.667 218.667 218.667s218.667-97.9 218.667-218.667v-480c0-61.854-50.146-112-112-112-61.856 0-112 50.146-112 112v261.397c-118.302 2.833-213.333 99.618-213.333 218.603zM544 634.667c0 120.766 97.899 218.667 218.667 218.667s218.667-97.9 218.667-218.667c0-118.985-95.031-215.77-213.333-218.603v-261.397c0-61.854-50.146-112-112-112s-112 50.146-112 112v480z" />
<glyph unicode="&#xe907;" glyph-name="alarm-clock" d="M243.503 801.83c16.662 16.663 16.662 43.677 0 60.34s-43.677 16.662-60.34 0l-128-128c-16.662-16.663-16.662-43.677 0-60.34s43.677-16.662 60.34 0l128 128zM840.836 862.17c-16.661 16.662-43.678 16.662-60.339 0s-16.661-43.677 0-60.34l128-128c16.661-16.662 43.678-16.662 60.339 0s16.661 43.677 0 60.34l-128 128zM512 21.333c-87.518 0-171.956 29.875-239.679 83.981l-71.485-71.484c-16.663-16.661-43.677-16.661-60.34 0s-16.662 43.678 0 60.339l71.485 71.484c-54.105 67.725-83.982 152.162-83.982 239.68 0 101.841 40.457 199.515 112.471 271.529s169.686 112.471 271.529 112.471c101.841 0 199.514-40.457 271.531-112.471 72.013-72.014 112.469-169.688 112.469-271.529 0-87.518-29.875-171.955-83.981-239.68l71.484-71.484c16.661-16.661 16.661-43.678 0-60.339s-43.678-16.661-60.339 0l-71.484 71.484c-67.725-54.106-152.162-83.981-239.68-83.981zM554.667 576c0 23.564-19.102 42.667-42.667 42.667s-42.667-19.103-42.667-42.667v-170.667c0-11.315 4.497-22.17 12.497-30.17l85.333-85.333c16.661-16.661 43.678-16.661 60.339 0s16.661 43.678 0 60.339l-72.836 72.836v152.994z" />
<glyph unicode="&#xe908;" glyph-name="alarm-clock-check" d="M243.503 801.83c16.662 16.663 16.662 43.677 0 60.34s-43.677 16.662-60.34 0l-128-128c-16.662-16.663-16.662-43.677 0-60.34s43.677-16.662 60.34 0l128 128zM840.836 862.17c-16.661 16.662-43.678 16.662-60.339 0s-16.661-43.677 0-60.34l128-128c16.661-16.662 43.678-16.662 60.339 0s16.661 43.677 0 60.34l-128 128zM512 21.333c-87.518 0-171.956 29.875-239.679 83.981l-71.485-71.484c-16.663-16.661-43.677-16.661-60.34 0s-16.662 43.678 0 60.339l71.485 71.484c-54.105 67.725-83.982 152.162-83.982 239.68 0 101.841 40.457 199.515 112.471 271.529s169.686 112.471 271.529 112.471c101.841 0 199.514-40.457 271.531-112.471 72.013-72.014 112.469-169.688 112.469-271.529 0-87.518-29.875-171.955-83.981-239.68l71.484-71.484c16.661-16.661 16.661-43.678 0-60.339s-43.678-16.661-60.339 0l-71.484 71.484c-67.725-54.106-152.162-83.981-239.68-83.981zM691.503 460.497c16.661 16.661 16.661 43.678 0 60.339-16.661 16.663-43.678 16.663-60.339 0l-161.83-161.83-55.163 55.164c-16.663 16.661-43.677 16.661-60.34 0s-16.662-43.678 0-60.339l85.334-85.333c16.661-16.661 43.678-16.661 60.339 0l192 192z" />
<glyph unicode="&#xe909;" glyph-name="alarm-clock-minus" d="M243.503 801.83c16.662 16.663 16.662 43.677 0 60.34s-43.677 16.662-60.34 0l-128-128c-16.662-16.663-16.662-43.677 0-60.34s43.677-16.662 60.34 0l128 128zM840.836 862.17c-16.661 16.662-43.678 16.662-60.339 0s-16.661-43.677 0-60.34l128-128c16.661-16.662 43.678-16.662 60.339 0s16.661 43.677 0 60.34l-128 128zM512 21.333c-87.518 0-171.956 29.875-239.679 83.981l-71.485-71.484c-16.663-16.661-43.677-16.661-60.34 0s-16.662 43.678 0 60.339l71.485 71.484c-54.105 67.725-83.982 152.162-83.982 239.68 0 101.841 40.457 199.515 112.471 271.529s169.686 112.471 271.529 112.471c101.841 0 199.514-40.457 271.531-112.471 72.013-72.014 112.469-169.688 112.469-271.529 0-87.518-29.875-171.955-83.981-239.68l71.484-71.484c16.661-16.661 16.661-43.678 0-60.339s-43.678-16.661-60.339 0l-71.484 71.484c-67.725-54.106-152.162-83.981-239.68-83.981zM384 448c-23.564 0-42.667-19.102-42.667-42.667s19.103-42.667 42.667-42.667h256c23.565 0 42.667 19.102 42.667 42.667s-19.102 42.667-42.667 42.667h-256z" />
<glyph unicode="&#xe90a;" glyph-name="alarm-clock-off" d="M158.17 862.17c-2.703 2.703-5.678 4.967-8.837 6.793-16.317 9.431-37.543 7.167-51.503-6.793-16.662-16.663-16.662-43.677 0-60.34l12.497-12.497-55.164-55.163c-16.662-16.663-16.662-43.677 0-60.34s43.677-16.662 60.34 0l55.163 55.164 61.114-61.114c-66.57-71.046-103.781-164.878-103.781-262.551 0-87.518 29.876-171.955 83.979-239.676l-71.482-71.484c-16.662-16.661-16.662-43.678 0-60.339s43.677-16.661 60.34 0l71.482 71.484c67.723-54.11 152.162-83.985 239.682-83.985 97.673 0 191.505 37.21 262.549 103.778l91.281-91.277c16.661-16.661 43.678-16.661 60.339 0s16.661 43.678 0 60.339l-768 768zM871.266 269.751c16.201 42.927 24.734 88.815 24.734 135.582 0 101.841-40.457 199.515-112.469 271.529-72.017 72.014-169.69 112.471-271.531 112.471-46.767 0-92.655-8.531-135.582-24.732l494.848-494.85zM840.836 862.17c-16.661 16.662-43.678 16.662-60.339 0s-16.661-43.677 0-60.34l128-128c16.661-16.662 43.678-16.662 60.339 0s16.661 43.677 0 60.34l-128 128z" />
<glyph unicode="&#xe90b;" glyph-name="alarm-clock-plus" d="M243.503 801.83c16.662 16.663 16.662 43.677 0 60.34s-43.677 16.662-60.34 0l-128-128c-16.662-16.663-16.662-43.677 0-60.34s43.677-16.662 60.34 0l128 128zM840.836 862.17c-16.661 16.662-43.678 16.662-60.339 0s-16.661-43.677 0-60.34l128-128c16.661-16.662 43.678-16.662 60.339 0s16.661 43.677 0 60.34l-128 128zM512 21.333c87.518 0 171.955 29.875 239.68 83.981l71.484-71.484c16.661-16.661 43.678-16.661 60.339 0s16.661 43.678 0 60.339l-71.484 71.484c54.106 67.725 83.981 152.162 83.981 239.68 0 101.841-40.457 199.515-112.469 271.529-72.017 72.014-169.69 112.471-271.531 112.471-101.843 0-199.515-40.457-271.529-112.471s-112.471-169.688-112.471-271.529c0-87.518 29.876-171.955 83.982-239.68l-71.485-71.484c-16.662-16.661-16.662-43.678 0-60.339s43.677-16.661 60.34 0l71.485 71.484c67.722-54.106 152.16-83.981 239.679-83.981zM512 576c23.565 0 42.667-19.103 42.667-42.667v-85.333h85.333c23.565 0 42.667-19.102 42.667-42.667s-19.102-42.667-42.667-42.667h-85.333v-85.333c0-23.565-19.102-42.667-42.667-42.667s-42.667 19.102-42.667 42.667v85.333h-85.333c-23.564 0-42.667 19.102-42.667 42.667s19.103 42.667 42.667 42.667h85.333v85.333c0 23.564 19.102 42.667 42.667 42.667z" />
<glyph unicode="&#xe90c;" glyph-name="alert-circle" d="M512 917.333c259.204 0 469.333-210.128 469.333-469.333 0-259.204-210.129-469.333-469.333-469.333-259.206 0-469.333 210.129-469.333 469.333 0 259.206 210.128 469.333 469.333 469.333zM554.667 618.667c0 23.564-19.102 42.667-42.667 42.667s-42.667-19.103-42.667-42.667v-170.667c0-23.565 19.102-42.667 42.667-42.667s42.667 19.102 42.667 42.667v170.667zM512 320c-23.565 0-42.667-19.102-42.667-42.667s19.102-42.667 42.667-42.667h0.427c23.565 0 42.667 19.102 42.667 42.667s-19.102 42.667-42.667 42.667h-0.427z" />
<glyph unicode="&#xe90d;" glyph-name="alert-hexagon" d="M529.19 909.438c13.111-2.696 24.828-9.26 34.146-14.477l320.964-178.314c9.86-5.432 22.263-12.262 31.782-22.595 8.235-8.934 14.464-19.522 18.274-31.057 4.407-13.342 4.356-27.498 4.318-38.756l-0.009-3.078v-346.328l0.009-3.081c0.038-11.255 0.090-25.412-4.318-38.754-3.81-11.537-10.039-22.123-18.274-31.057-9.519-10.334-21.922-17.165-31.782-22.596l-320.965-178.313c-9.318-5.218-21.035-11.78-34.146-14.477-11.341-2.334-23.040-2.334-34.381 0-13.111 2.697-24.828 9.259-34.146 14.477l-320.966 178.313c-9.862 5.436-22.26 12.262-31.782 22.596-8.233 8.934-14.463 19.52-18.274 31.057-4.408 13.342-4.357 27.499-4.316 38.754l0.008 3.081v346.328l-0.008 3.078c-0.041 11.258-0.093 25.414 4.316 38.756 3.811 11.535 10.042 22.124 18.274 31.057 9.522 10.333 21.922 17.163 31.783 22.595l320.965 178.314c9.318 5.218 21.035 11.781 34.146 14.477 11.341 2.333 23.040 2.333 34.381 0zM554.667 618.667c0 23.564-19.102 42.667-42.667 42.667s-42.667-19.103-42.667-42.667v-170.667c0-23.565 19.102-42.667 42.667-42.667s42.667 19.102 42.667 42.667v170.667zM512 320c-23.565 0-42.667-19.102-42.667-42.667s19.102-42.667 42.667-42.667h0.427c23.565 0 42.667 19.102 42.667 42.667s-19.102 42.667-42.667 42.667h-0.427z" />
<glyph unicode="&#xe90e;" glyph-name="alert-octagon" d="M363.635 917.336l298.902 0.004c8.107 0.022 18.308 0.049 28.348-2.362 8.708-2.090 17.033-5.538 24.666-10.217 8.806-5.395 16-12.629 21.717-18.374l213.116-213.118c5.743-5.714 12.979-12.91 18.372-21.713 4.681-7.635 8.128-15.959 10.219-24.666 2.411-10.041 2.381-20.244 2.359-28.347l-0.004-2.177v-296.726l0.004-2.176c0.021-8.102 0.051-18.308-2.359-28.348-2.091-8.708-5.538-17.033-10.219-24.666-5.393-8.806-12.629-16-18.372-21.717l-213.116-213.116c-5.717-5.743-12.911-12.979-21.717-18.372-7.633-4.681-15.957-8.128-24.666-10.219-10.039-2.411-20.245-2.381-28.348-2.359h-301.079c-8.103-0.021-18.307-0.051-28.347 2.359-8.707 2.091-17.031 5.538-24.666 10.219-8.804 5.393-16 12.629-21.714 18.372l-213.116 213.116c-5.745 5.717-12.979 12.911-18.374 21.717-4.679 7.633-8.127 15.957-10.217 24.666-2.411 10.039-2.383 20.241-2.362 28.348l0.004 2.176v296.726l-0.004 2.178c-0.022 8.103-0.049 18.306 2.362 28.347 2.090 8.707 5.538 17.031 10.217 24.666 5.395 8.804 12.629 16 18.374 21.714l213.117 213.117c5.714 5.745 12.91 12.979 21.714 18.374 7.635 4.679 15.959 8.127 24.666 10.217 10.041 2.411 20.244 2.383 28.347 2.362l2.178-0.004zM554.667 618.667c0 23.564-19.102 42.667-42.667 42.667s-42.667-19.103-42.667-42.667v-170.667c0-23.565 19.102-42.667 42.667-42.667s42.667 19.102 42.667 42.667v170.667zM512 320c-23.565 0-42.667-19.102-42.667-42.667s19.102-42.667 42.667-42.667h0.427c23.565 0 42.667 19.102 42.667 42.667s-19.102 42.667-42.667 42.667h-0.427z" />
<glyph unicode="&#xe90f;" glyph-name="alert-square" d="M761.109 874.667c22.494 0.001 41.899 0.001 57.877-1.304 16.87-1.378 33.647-4.421 49.792-12.647 24.085-12.272 43.665-31.853 55.936-55.938 8.226-16.144 11.268-32.922 12.646-49.789 1.306-15.982 1.306-35.385 1.306-57.876v-498.225c0-22.49 0-41.894-1.306-57.873-1.378-16.87-4.42-33.647-12.646-49.792-12.271-24.085-31.851-43.665-55.936-55.936-16.145-8.226-32.922-11.268-49.792-12.646-15.979-1.306-35.383-1.306-57.873-1.306h-498.225c-22.491 0-41.894 0-57.876 1.306-16.868 1.378-33.645 4.42-49.789 12.646-24.085 12.271-43.666 31.851-55.938 55.936-8.226 16.145-11.269 32.922-12.647 49.792-1.306 15.979-1.305 35.383-1.304 57.877v498.222c-0.001 22.491-0.001 41.894 1.304 57.875 1.378 16.868 4.421 33.645 12.647 49.789 12.272 24.085 31.853 43.666 55.938 55.938 16.144 8.226 32.922 11.269 49.789 12.647 15.982 1.306 35.386 1.305 57.877 1.304h498.22zM554.667 618.667c0 23.564-19.102 42.667-42.667 42.667s-42.667-19.103-42.667-42.667v-170.667c0-23.565 19.102-42.667 42.667-42.667s42.667 19.102 42.667 42.667v170.667zM512 320c-23.565 0-42.667-19.102-42.667-42.667s19.102-42.667 42.667-42.667h0.427c23.565 0 42.667 19.102 42.667 42.667s-19.102 42.667-42.667 42.667h-0.427z" />
<glyph unicode="&#xe910;" glyph-name="alert-triangle" d="M546.671 888.816c17.045-7.58 28.117-20.931 35.823-31.81 7.578-10.696 15.689-24.708 24.61-40.119l352.734-609.268c8.956-15.467 17.092-29.521 22.609-41.451 5.611-12.122 11.695-28.416 9.754-47.019-2.509-24.068-15.117-45.939-34.688-60.169-15.125-10.995-32.277-13.897-45.581-15.117-13.086-1.199-29.329-1.199-47.202-1.199h-705.463c-17.873 0-34.114 0-47.202 1.199-13.302 1.22-30.454 4.122-45.579 15.117-19.572 14.229-32.182 36.1-34.691 60.169-1.939 18.603 4.145 34.897 9.754 47.019 5.519 11.93 13.657 25.984 22.614 41.451l352.732 609.266c8.921 15.411 17.030 29.423 24.608 40.12 7.706 10.879 18.778 24.23 35.827 31.81 22.071 9.815 47.27 9.815 69.342 0zM554.667 576c0 23.564-19.102 42.667-42.667 42.667s-42.667-19.103-42.667-42.667v-170.667c0-23.565 19.102-42.667 42.667-42.667s42.667 19.102 42.667 42.667v170.667zM512 277.333c-23.565 0-42.667-19.102-42.667-42.667s19.102-42.667 42.667-42.667h0.427c23.565 0 42.667 19.102 42.667 42.667s-19.102 42.667-42.667 42.667h-0.427z" />
<glyph unicode="&#xe911;" glyph-name="align-bottom-01" d="M512 874.667c23.565 0 42.667-19.103 42.667-42.667v-494.327l225.83 225.831c16.661 16.662 43.678 16.662 60.339 0s16.661-43.678 0-60.34l-298.667-298.667c-16.661-16.661-43.678-16.661-60.339 0l-298.667 298.667c-16.662 16.661-16.662 43.677 0 60.34s43.677 16.662 60.34 0l225.83-225.831v494.327c0 23.564 19.102 42.667 42.667 42.667zM85.333 64c0 23.565 19.103 42.667 42.667 42.667h768c23.565 0 42.667-19.102 42.667-42.667s-19.102-42.667-42.667-42.667h-768c-23.564 0-42.667 19.102-42.667 42.667z" />
<glyph unicode="&#xe912;" glyph-name="align-bottom-02" d="M723.968 704h2.731c18.714 0 34.863 0.001 48.23-0.911 14.071-0.96 28.147-3.072 42.057-8.832 31.36-12.991 56.282-37.91 69.269-69.273 5.76-13.906 7.872-27.983 8.836-42.055 0.909-13.366 0.909-29.514 0.909-48.23v-344.064c0-18.714 0-34.863-0.909-48.23-0.964-14.071-3.076-28.147-8.836-42.057-12.988-31.36-37.909-56.282-69.269-69.269-13.909-5.76-27.985-7.872-42.057-8.836-13.367-0.909-29.517-0.909-48.23-0.909h-2.731c-18.714 0-34.863 0-48.23 0.909-14.071 0.964-28.147 3.076-42.052 8.836-31.364 12.988-56.286 37.909-69.274 69.269-5.76 13.909-7.872 27.985-8.832 42.057-0.913 13.367-0.913 29.517-0.913 48.23v344.063c0 18.716 0 34.865 0.913 48.23 0.96 14.073 3.072 28.149 8.832 42.055 12.988 31.363 37.909 56.282 69.274 69.273 13.905 5.76 27.981 7.872 42.052 8.832 13.367 0.912 29.517 0.911 48.23 0.911zM297.302 874.667h2.729c18.716 0 34.865 0.001 48.23-0.911 14.073-0.96 28.149-3.072 42.055-8.832 31.364-12.991 56.284-37.91 69.271-69.273 5.76-13.906 7.872-27.983 8.836-42.055 0.909-13.366 0.909-29.514 0.909-48.23v-514.73c0-18.714 0-34.863-0.909-48.23-0.964-14.071-3.076-28.147-8.836-42.057-12.988-31.36-37.908-56.282-69.271-69.269-13.906-5.76-27.983-7.872-42.055-8.836-13.365-0.909-29.514-0.909-48.23-0.909h-2.73c-18.716 0-34.864 0-48.23 0.909-14.073 0.964-28.149 3.076-42.055 8.836-31.363 12.988-56.282 37.909-69.273 69.269-5.76 13.909-7.872 27.985-8.832 42.057-0.912 13.367-0.911 29.517-0.911 48.23v514.73c0 18.716-0.001 34.865 0.911 48.23 0.96 14.073 3.072 28.149 8.832 42.055 12.991 31.363 37.91 56.282 69.273 69.273 13.906 5.76 27.983 7.872 42.055 8.832 13.366 0.912 29.515 0.911 48.23 0.911z" />
<glyph unicode="&#xe913;" glyph-name="align-center" d="M128 746.667c-23.564 0-42.667-19.103-42.667-42.667s19.103-42.667 42.667-42.667h768c23.565 0 42.667 19.103 42.667 42.667s-19.102 42.667-42.667 42.667h-768zM256 576c-23.564 0-42.667-19.103-42.667-42.667s19.103-42.667 42.667-42.667h512c23.565 0 42.667 19.102 42.667 42.667s-19.102 42.667-42.667 42.667h-512zM85.333 362.667c0 23.565 19.103 42.667 42.667 42.667h768c23.565 0 42.667-19.102 42.667-42.667s-19.102-42.667-42.667-42.667h-768c-23.564 0-42.667 19.102-42.667 42.667zM256 234.667c-23.564 0-42.667-19.102-42.667-42.667s19.103-42.667 42.667-42.667h512c23.565 0 42.667 19.102 42.667 42.667s-19.102 42.667-42.667 42.667h-512z" />
<glyph unicode="&#xe914;" glyph-name="align-horizontal-centre-01" d="M512 874.667c23.565 0 42.667-19.103 42.667-42.667v-768c0-23.565-19.102-42.667-42.667-42.667s-42.667 19.102-42.667 42.667v768c0 23.564 19.102 42.667 42.667 42.667zM764.339 490.667l97.83 97.83c16.661 16.663 16.661 43.677 0 60.34s-43.678 16.662-60.339 0l-170.667-170.667c-16.661-16.661-16.661-43.678 0-60.339l170.667-170.667c16.661-16.661 43.678-16.661 60.339 0s16.661 43.678 0 60.339l-97.83 97.83h174.327c23.565 0 42.667 19.102 42.667 42.667s-19.102 42.667-42.667 42.667h-174.327zM42.667 448c0 23.565 19.103 42.667 42.667 42.667h174.327l-97.83 97.83c-16.662 16.663-16.662 43.677 0 60.34s43.677 16.662 60.34 0l170.667-170.667c16.662-16.661 16.662-43.678 0-60.339l-170.667-170.667c-16.663-16.661-43.677-16.661-60.34 0s-16.662 43.678 0 60.339l97.83 97.83h-174.327c-23.564 0-42.667 19.102-42.667 42.667z" />
<glyph unicode="&#xe915;" glyph-name="align-horizontal-centre-02" d="M339.969 832h344.063c18.714 0 34.863 0.001 48.23-0.911 14.071-0.96 28.147-3.072 42.057-8.832 31.36-12.992 56.282-37.91 69.269-69.273 5.76-13.906 7.872-27.983 8.836-42.055 0.909-13.366 0.909-29.514 0.909-48.23v-2.73c0-18.716 0-34.865-0.909-48.23-0.964-14.073-3.076-28.149-8.836-42.055-12.988-31.364-37.909-56.284-69.269-69.271-13.909-5.76-27.985-7.872-42.057-8.836-13.367-0.909-29.517-0.909-48.23-0.909h-344.062c-18.716 0-34.865 0-48.231 0.909-14.073 0.964-28.149 3.076-42.055 8.836-31.363 12.988-56.282 37.908-69.273 69.271-5.76 13.906-7.872 27.983-8.832 42.055-0.912 13.366-0.911 29.515-0.911 48.23v2.729c0 18.716-0.001 34.865 0.911 48.23 0.96 14.073 3.072 28.149 8.832 42.055 12.991 31.363 37.91 56.282 69.273 69.273 13.906 5.76 27.983 7.872 42.055 8.832 13.366 0.912 29.515 0.911 48.23 0.911zM254.636 405.333h514.73c18.714 0 34.863 0 48.23-0.913 14.071-0.96 28.147-3.072 42.057-8.832 31.36-12.988 56.282-37.909 69.269-69.274 5.76-13.905 7.872-27.981 8.836-42.052 0.909-13.367 0.909-29.517 0.909-48.23v-2.731c0-18.714 0-34.863-0.909-48.23-0.964-14.071-3.076-28.147-8.836-42.057-12.988-31.36-37.909-56.282-69.269-69.269-13.909-5.76-27.985-7.872-42.057-8.836-13.367-0.909-29.517-0.909-48.23-0.909h-514.729c-18.716 0-34.865 0-48.231 0.913-14.073 0.96-28.149 3.072-42.055 8.832-31.363 12.988-56.282 37.909-69.273 69.269-5.76 13.909-7.872 27.985-8.832 42.057-0.912 13.367-0.911 29.517-0.911 48.23v2.731c0 18.714-0.001 34.863 0.911 48.23 0.96 14.071 3.072 28.147 8.832 42.052 12.991 31.364 37.91 56.286 69.273 69.274 13.906 5.76 27.983 7.872 42.055 8.836 13.366 0.909 29.515 0.909 48.23 0.909z" />
<glyph unicode="&#xe916;" glyph-name="align-justify" d="M85.333 533.333c0 23.564 19.103 42.667 42.667 42.667h768c23.565 0 42.667-19.103 42.667-42.667s-19.102-42.667-42.667-42.667h-768c-23.564 0-42.667 19.102-42.667 42.667zM85.333 192c0 23.565 19.103 42.667 42.667 42.667h768c23.565 0 42.667-19.102 42.667-42.667s-19.102-42.667-42.667-42.667h-768c-23.564 0-42.667 19.102-42.667 42.667zM85.333 704c0 23.564 19.103 42.667 42.667 42.667h768c23.565 0 42.667-19.103 42.667-42.667s-19.102-42.667-42.667-42.667h-768c-23.564 0-42.667 19.103-42.667 42.667zM85.333 362.667c0 23.565 19.103 42.667 42.667 42.667h768c23.565 0 42.667-19.102 42.667-42.667s-19.102-42.667-42.667-42.667h-768c-23.564 0-42.667 19.102-42.667 42.667z" />
<glyph unicode="&#xe917;" glyph-name="align-left" d="M85.333 533.333c0 23.564 19.103 42.667 42.667 42.667h554.667c23.565 0 42.667-19.103 42.667-42.667s-19.102-42.667-42.667-42.667h-554.667c-23.564 0-42.667 19.102-42.667 42.667zM85.333 704c0 23.564 19.103 42.667 42.667 42.667h725.333c23.565 0 42.667-19.103 42.667-42.667s-19.102-42.667-42.667-42.667h-725.333c-23.564 0-42.667 19.103-42.667 42.667zM85.333 362.667c0 23.565 19.103 42.667 42.667 42.667h725.333c23.565 0 42.667-19.102 42.667-42.667s-19.102-42.667-42.667-42.667h-725.333c-23.564 0-42.667 19.102-42.667 42.667zM85.333 192c0 23.565 19.103 42.667 42.667 42.667h554.667c23.565 0 42.667-19.102 42.667-42.667s-19.102-42.667-42.667-42.667h-554.667c-23.564 0-42.667 19.102-42.667 42.667z" />
<glyph unicode="&#xe918;" glyph-name="align-left-01" d="M128 874.667c23.564 0 42.667-19.103 42.667-42.667v-768c0-23.565-19.103-42.667-42.667-42.667s-42.667 19.102-42.667 42.667v768c0 23.564 19.103 42.667 42.667 42.667zM401.673 490.667l225.83 225.83c16.661 16.663 16.661 43.677 0 60.34s-43.678 16.662-60.339 0l-298.667-298.667c-16.662-16.661-16.662-43.678 0-60.339l298.667-298.667c16.661-16.661 43.678-16.661 60.339 0s16.661 43.678 0 60.339l-225.83 225.83h494.327c23.565 0 42.667 19.102 42.667 42.667s-19.102 42.667-42.667 42.667h-494.327z" />
<glyph unicode="&#xe919;" glyph-name="align-left-02" d="M768 659.969v2.729c0 18.716 0 34.865-0.909 48.23-0.964 14.073-3.076 28.149-8.836 42.055-12.988 31.363-37.909 56.282-69.269 69.273-13.909 5.76-27.985 7.872-42.057 8.832-13.367 0.912-29.517 0.911-48.23 0.911h-344.064c-18.716 0-34.864 0.001-48.23-0.911-14.073-0.96-28.149-3.072-42.055-8.832-31.363-12.991-56.282-37.91-69.273-69.273-5.76-13.906-7.872-27.983-8.832-42.055-0.912-13.366-0.911-29.514-0.911-48.23v-2.73c0-18.716-0.001-34.865 0.911-48.23 0.96-14.073 3.072-28.149 8.832-42.055 12.992-31.364 37.91-56.284 69.273-69.271 13.906-5.76 27.983-7.872 42.055-8.836 13.366-0.909 29.515-0.909 48.23-0.909h344.063c18.714 0 34.863 0 48.23 0.909 14.071 0.964 28.147 3.076 42.057 8.836 31.36 12.988 56.282 37.908 69.269 69.271 5.76 13.906 7.872 27.983 8.836 42.055 0.909 13.365 0.909 29.514 0.909 48.23zM938.667 233.301v2.731c0 18.714 0 34.863-0.909 48.23-0.964 14.071-3.076 28.147-8.836 42.052-12.988 31.364-37.909 56.286-69.269 69.274-13.909 5.76-27.985 7.872-42.057 8.836-13.367 0.909-29.517 0.909-48.23 0.909h-514.73c-18.716 0-34.864 0-48.23-0.913-14.073-0.96-28.149-3.072-42.055-8.832-31.363-12.988-56.282-37.909-69.273-69.274-5.76-13.905-7.872-27.981-8.832-42.052-0.912-13.367-0.911-29.517-0.911-48.23v-2.731c0-18.714-0.001-34.863 0.911-48.23 0.96-14.071 3.072-28.147 8.832-42.057 12.991-31.36 37.91-56.282 69.273-69.269 13.906-5.76 27.983-7.872 42.055-8.836 13.366-0.909 29.515-0.909 48.23-0.909h514.73c18.714 0 34.863 0 48.23 0.909 14.071 0.964 28.147 3.076 42.057 8.836 31.36 12.988 56.282 37.909 69.269 69.269 5.76 13.909 7.872 27.985 8.836 42.057 0.909 13.367 0.909 29.517 0.909 48.23z" />
<glyph unicode="&#xe91a;" glyph-name="align-right" d="M298.667 533.333c0 23.564 19.103 42.667 42.667 42.667h554.667c23.565 0 42.667-19.103 42.667-42.667s-19.102-42.667-42.667-42.667h-554.667c-23.564 0-42.667 19.102-42.667 42.667zM128 704c0 23.564 19.103 42.667 42.667 42.667h725.333c23.565 0 42.667-19.103 42.667-42.667s-19.102-42.667-42.667-42.667h-725.333c-23.564 0-42.667 19.103-42.667 42.667zM128 362.667c0 23.565 19.103 42.667 42.667 42.667h725.333c23.565 0 42.667-19.102 42.667-42.667s-19.102-42.667-42.667-42.667h-725.333c-23.564 0-42.667 19.102-42.667 42.667zM298.667 192c0 23.565 19.103 42.667 42.667 42.667h554.667c23.565 0 42.667-19.102 42.667-42.667s-19.102-42.667-42.667-42.667h-554.667c-23.564 0-42.667 19.102-42.667 42.667z" />
<glyph unicode="&#xe91b;" glyph-name="align-right-01" d="M896 874.667c23.565 0 42.667-19.103 42.667-42.667v-768c0-23.565-19.102-42.667-42.667-42.667s-42.667 19.102-42.667 42.667v768c0 23.564 19.102 42.667 42.667 42.667zM85.333 448c0 23.565 19.103 42.667 42.667 42.667h494.327l-225.831 225.83c-16.662 16.663-16.662 43.677 0 60.34s43.678 16.662 60.34 0l298.667-298.667c8-8 12.497-18.854 12.497-30.17s-4.497-22.17-12.497-30.17l-298.667-298.667c-16.661-16.661-43.677-16.661-60.34 0s-16.662 43.678 0 60.339l225.831 225.83h-494.327c-23.564 0-42.667 19.102-42.667 42.667z" />
<glyph unicode="&#xe91c;" glyph-name="align-right-02" d="M256 659.969v2.729c0 18.716-0.001 34.865 0.911 48.23 0.96 14.073 3.072 28.149 8.832 42.055 12.991 31.363 37.91 56.282 69.273 69.273 13.906 5.76 27.983 7.872 42.055 8.832 13.366 0.912 29.514 0.911 48.23 0.911h344.064c18.714 0 34.863 0.001 48.23-0.911 14.071-0.96 28.147-3.072 42.057-8.832 31.36-12.991 56.282-37.91 69.269-69.273 5.76-13.906 7.872-27.983 8.836-42.055 0.909-13.366 0.909-29.514 0.909-48.23v-2.73c0-18.716 0-34.865-0.909-48.23-0.964-14.073-3.076-28.149-8.836-42.055-12.988-31.364-37.909-56.284-69.269-69.271-13.909-5.76-27.985-7.872-42.057-8.836-13.367-0.909-29.517-0.909-48.23-0.909h-344.063c-18.716 0-34.865 0-48.23 0.909-14.073 0.964-28.149 3.076-42.055 8.836-31.363 12.988-56.282 37.908-69.273 69.271-5.76 13.906-7.872 27.983-8.832 42.055-0.912 13.365-0.911 29.514-0.911 48.23zM85.333 233.301v2.731c0 18.714-0.001 34.863 0.911 48.23 0.96 14.071 3.072 28.147 8.832 42.052 12.991 31.364 37.91 56.286 69.273 69.274 13.906 5.76 27.983 7.872 42.055 8.832 13.366 0.913 29.514 0.913 48.23 0.913h514.73c18.714 0 34.863 0 48.23-0.913 14.071-0.96 28.147-3.072 42.057-8.832 31.36-12.988 56.282-37.909 69.269-69.274 5.76-13.905 7.872-27.981 8.836-42.052 0.909-13.367 0.909-29.517 0.909-48.23v-2.731c0-18.714 0-34.863-0.909-48.23-0.964-14.071-3.076-28.147-8.836-42.057-12.988-31.36-37.909-56.282-69.269-69.269-13.909-5.76-27.985-7.872-42.057-8.836-13.367-0.909-29.517-0.909-48.23-0.909h-514.73c-18.716 0-34.865 0-48.23 0.909-14.073 0.964-28.149 3.076-42.055 8.836-31.363 12.988-56.282 37.909-69.273 69.269-5.76 13.909-7.872 27.985-8.832 42.057-0.912 13.367-0.911 29.517-0.911 48.23z" />
<glyph unicode="&#xe91d;" glyph-name="align-top-01" d="M85.333 832c0 23.564 19.103 42.667 42.667 42.667h768c23.565 0 42.667-19.103 42.667-42.667s-19.102-42.667-42.667-42.667h-768c-23.564 0-42.667 19.103-42.667 42.667zM554.667 558.327l225.83-225.83c16.661-16.661 43.678-16.661 60.339 0s16.661 43.678 0 60.339l-298.667 298.667c-16.661 16.662-43.678 16.662-60.339 0l-298.667-298.667c-16.662-16.661-16.662-43.678 0-60.339s43.677-16.661 60.34 0l225.83 225.83v-494.327c0-23.565 19.102-42.667 42.667-42.667s42.667 19.102 42.667 42.667v494.327z" />
<glyph unicode="&#xe91e;" glyph-name="align-top-02" d="M723.968 192h2.731c18.714 0 34.863 0 48.23 0.909 14.071 0.964 28.147 3.076 42.057 8.836 31.36 12.988 56.282 37.909 69.269 69.269 5.76 13.909 7.872 27.985 8.836 42.057 0.909 13.367 0.909 29.517 0.909 48.23v344.064c0 18.716 0 34.864-0.909 48.23-0.964 14.073-3.076 28.149-8.836 42.055-12.988 31.363-37.909 56.282-69.269 69.273-13.909 5.76-27.985 7.872-42.057 8.832-13.367 0.912-29.517 0.911-48.23 0.911h-2.731c-18.714 0-34.863 0.001-48.23-0.911-14.071-0.96-28.147-3.072-42.052-8.832-31.364-12.992-56.286-37.91-69.274-69.273-5.76-13.906-7.872-27.983-8.832-42.055-0.913-13.366-0.913-29.515-0.913-48.23v-344.063c0-18.714 0-34.863 0.913-48.23 0.96-14.071 3.072-28.147 8.832-42.057 12.988-31.36 37.909-56.282 69.274-69.269 13.905-5.76 27.981-7.872 42.052-8.836 13.367-0.909 29.517-0.909 48.23-0.909zM297.302 21.333h2.729c18.716 0 34.865 0 48.23 0.909 14.072 0.964 28.148 3.076 42.055 8.836 31.364 12.988 56.284 37.909 69.271 69.269 5.76 13.909 7.872 27.985 8.836 42.057 0.909 13.367 0.909 29.517 0.909 48.23v514.73c0 18.716 0 34.864-0.909 48.23-0.964 14.073-3.076 28.149-8.836 42.055-12.988 31.363-37.908 56.282-69.271 69.273-13.906 5.76-27.983 7.872-42.055 8.832-13.365 0.912-29.514 0.911-48.23 0.911h-2.73c-18.716 0-34.864 0.001-48.23-0.911-14.073-0.96-28.149-3.072-42.055-8.832-31.363-12.991-56.282-37.91-69.273-69.273-5.76-13.906-7.872-27.983-8.832-42.055-0.912-13.366-0.911-29.515-0.911-48.23v-514.73c0-18.714-0.001-34.863 0.911-48.23 0.96-14.071 3.072-28.147 8.832-42.057 12.992-31.36 37.91-56.282 69.273-69.269 13.906-5.76 27.983-7.872 42.055-8.836 13.366-0.909 29.515-0.909 48.23-0.909z" />
<glyph unicode="&#xe91f;" glyph-name="align-vertical-center-01" d="M512 917.333c23.565 0 42.667-19.103 42.667-42.667v-174.327l97.83 97.83c16.661 16.662 43.678 16.662 60.339 0s16.661-43.677 0-60.34l-170.667-170.667c-16.661-16.662-43.678-16.662-60.339 0l-170.667 170.667c-16.662 16.663-16.662 43.677 0 60.34s43.677 16.662 60.34 0l97.83-97.83v174.327c0 23.564 19.102 42.667 42.667 42.667zM85.333 448c0 23.565 19.103 42.667 42.667 42.667h768c23.565 0 42.667-19.102 42.667-42.667s-19.102-42.667-42.667-42.667h-768c-23.564 0-42.667 19.102-42.667 42.667zM512-21.333c-23.565 0-42.667 19.102-42.667 42.667v174.327l-97.83-97.83c-16.663-16.661-43.677-16.661-60.34 0s-16.662 43.678 0 60.339l170.667 170.667c16.661 16.661 43.678 16.661 60.339 0l170.667-170.667c16.661-16.661 16.661-43.678 0-60.339s-43.678-16.661-60.339 0l-97.83 97.83v-174.327c0-23.565-19.102-42.667-42.667-42.667z" />
<glyph unicode="&#xe920;" glyph-name="align-vertical-center-02" d="M723.968 789.333h2.731c18.714 0 34.863 0.001 48.23-0.911 14.071-0.96 28.147-3.072 42.057-8.832 31.36-12.991 56.282-37.91 69.269-69.273 5.76-13.906 7.872-27.983 8.836-42.055 0.909-13.366 0.909-29.514 0.909-48.23v-344.064c0-18.714 0-34.863-0.909-48.23-0.964-14.071-3.076-28.147-8.836-42.057-12.988-31.36-37.909-56.282-69.269-69.269-13.909-5.76-27.985-7.872-42.057-8.836-13.367-0.909-29.517-0.909-48.23-0.909h-2.731c-18.714 0-34.863 0-48.23 0.909-14.071 0.964-28.147 3.076-42.052 8.836-31.364 12.988-56.286 37.909-69.274 69.269-5.76 13.909-7.872 27.985-8.832 42.057-0.913 13.367-0.913 29.517-0.913 48.23v344.063c0 18.716 0 34.865 0.913 48.23 0.96 14.073 3.072 28.149 8.832 42.055 12.988 31.363 37.909 56.282 69.274 69.273 13.905 5.76 27.981 7.872 42.052 8.832 13.367 0.912 29.517 0.911 48.23 0.911zM297.302 874.667h2.729c18.716 0 34.865 0.001 48.23-0.911 14.073-0.96 28.149-3.072 42.055-8.832 31.364-12.991 56.284-37.91 69.271-69.273 5.76-13.906 7.872-27.983 8.836-42.055 0.909-13.366 0.909-29.514 0.909-48.23v-514.73c0-18.714 0-34.863-0.909-48.23-0.964-14.071-3.076-28.147-8.836-42.057-12.988-31.36-37.908-56.282-69.271-69.269-13.906-5.76-27.983-7.872-42.055-8.836-13.365-0.909-29.514-0.909-48.23-0.909h-2.73c-18.716 0-34.864 0-48.23 0.909-14.073 0.964-28.149 3.076-42.055 8.836-31.363 12.988-56.282 37.909-69.273 69.269-5.76 13.909-7.872 27.985-8.832 42.057-0.912 13.367-0.911 29.517-0.911 48.23v514.73c0 18.716-0.001 34.865 0.911 48.23 0.96 14.073 3.072 28.149 8.832 42.055 12.991 31.363 37.91 56.282 69.273 69.273 13.906 5.76 27.983 7.872 42.055 8.832 13.366 0.912 29.515 0.911 48.23 0.911z" />
<glyph unicode="&#xe921;" glyph-name="anchor" d="M682.667 746.667c0-79.524-54.391-146.344-128-165.29v-515c86.144 9.63 166.976 48.209 228.864 110.093 61.884 61.888 100.463 142.72 110.093 228.864h-82.957c-23.565 0-42.667 19.102-42.667 42.667s19.102 42.667 42.667 42.667h128c23.565 0 42.667-19.102 42.667-42.667 0-124.476-49.446-243.853-137.463-331.87s-207.394-137.463-331.87-137.463c-124.475 0-243.852 49.446-331.869 137.463s-137.465 207.394-137.465 331.87c0 11.315 4.495 22.17 12.497 30.17s18.854 12.497 30.17 12.497h128c23.564 0 42.667-19.102 42.667-42.667s-19.103-42.667-42.667-42.667h-82.957c9.629-86.144 48.209-166.976 110.095-228.864 61.885-61.884 142.717-100.463 228.862-110.093v515c-73.61 18.946-128 85.766-128 165.29 0 94.257 76.41 170.667 170.667 170.667 94.255 0 170.667-76.41 170.667-170.667zM512 832c-47.13 0-85.333-38.205-85.333-85.333s38.204-85.333 85.333-85.333c47.13 0 85.333 38.205 85.333 85.333s-38.204 85.333-85.333 85.333z" />
<glyph unicode="&#xe922;" glyph-name="annotation" d="M331.038 874.667h361.924c34.347 0 62.69 0.001 85.781-1.885 23.983-1.96 46.029-6.165 66.739-16.716 32.111-16.363 58.219-42.471 74.581-74.584 10.551-20.707 14.758-42.754 16.717-66.736 1.886-23.091 1.886-51.437 1.886-85.782v-246.426c0-28.578 0-52.164-1.318-71.475-1.365-20.023-4.288-38.545-11.674-56.371-17.323-41.818-50.547-75.042-92.365-92.365-17.826-7.386-36.348-10.308-56.371-11.674-19.311-1.318-42.897-1.318-71.475-1.318h-1.463c-22.895 0-27.439-0.269-31.138-1.143-6.443-1.519-12.45-4.523-17.532-8.764-2.918-2.436-5.862-5.914-19.597-24.226l-63.014-84.019c-3.985-5.316-8.486-11.324-12.821-16.145-4.779-5.312-12.723-13.137-24.7-17.796-14.921-5.803-31.475-5.803-46.396 0-11.977 4.659-19.921 12.484-24.7 17.796-4.335 4.821-8.836 10.829-12.821 16.145l-63.014 84.019c-13.736 18.313-16.677 21.79-19.595 24.226-5.085 4.241-11.089 7.245-17.536 8.764-3.698 0.875-8.243 1.143-31.136 1.143h-1.462c-28.578 0-52.167 0-71.478 1.318-20.023 1.365-38.544 4.288-56.371 11.674-41.818 17.323-75.043 50.547-92.364 92.365-7.384 17.826-10.308 36.348-11.674 56.371-1.318 19.311-1.318 42.897-1.317 71.475v246.426c0 34.345-0.001 62.691 1.885 85.783 1.96 23.983 6.165 46.029 16.716 66.736 16.363 32.113 42.471 58.222 74.584 74.584 20.707 10.551 42.754 14.756 66.736 16.716 23.091 1.886 51.437 1.886 85.783 1.885z" />
<glyph unicode="&#xe923;" glyph-name="annotation-alert" d="M692.962 874.667c34.347 0 62.69 0.001 85.781-1.885 23.983-1.96 46.029-6.165 66.739-16.716 32.111-16.362 58.219-42.471 74.581-74.584 10.551-20.707 14.758-42.754 16.717-66.737 1.886-23.091 1.886-51.436 1.886-85.781v-246.426c0-28.578 0-52.164-1.318-71.475-1.365-20.023-4.288-38.545-11.674-56.371-17.323-41.818-50.547-75.042-92.365-92.365-17.826-7.386-36.348-10.308-56.371-11.674-19.311-1.318-42.897-1.318-71.475-1.318h-1.463c-22.895 0-27.439-0.269-31.138-1.143-6.443-1.519-12.45-4.523-17.532-8.764-2.918-2.436-5.862-5.914-19.597-24.226l-63.014-84.019c-3.985-5.316-8.486-11.324-12.821-16.145-4.779-5.312-12.723-13.137-24.7-17.796-14.921-5.803-31.475-5.803-46.396 0-11.977 4.659-19.921 12.484-24.7 17.796-4.335 4.821-8.836 10.829-12.821 16.145l-63.014 84.019c-13.736 18.313-16.677 21.79-19.595 24.226-5.085 4.241-11.089 7.245-17.536 8.764-3.698 0.875-8.243 1.143-31.136 1.143h-1.462c-28.578 0-52.167 0-71.478 1.318-20.023 1.365-38.544 4.288-56.371 11.674-41.818 17.323-75.043 50.547-92.364 92.365-7.384 17.826-10.308 36.348-11.674 56.371-1.318 19.311-1.318 42.897-1.317 71.475v246.426c0 34.345-0.001 62.691 1.885 85.782 1.96 23.983 6.165 46.029 16.716 66.737 16.362 32.113 42.471 58.222 74.584 74.584 20.707 10.551 42.754 14.757 66.737 16.716 23.091 1.886 51.437 1.886 85.782 1.885h361.924zM554.667 661.333c0 23.564-19.102 42.667-42.667 42.667s-42.667-19.103-42.667-42.667v-149.333c0-23.565 19.102-42.667 42.667-42.667s42.667 19.102 42.667 42.667v149.333zM512 405.333c-23.565 0-42.667-19.102-42.667-42.667s19.102-42.667 42.667-42.667h0.427c23.565 0 42.667 19.102 42.667 42.667s-19.102 42.667-42.667 42.667h-0.427z" />
<glyph unicode="&#xe924;" glyph-name="annotation-check" d="M692.962 874.667c34.347 0 62.69 0.001 85.781-1.885 23.983-1.96 46.029-6.165 66.739-16.716 32.111-16.362 58.219-42.471 74.581-74.584 10.551-20.707 14.758-42.754 16.717-66.737 1.886-23.091 1.886-51.436 1.886-85.781v-246.426c0-28.578 0-52.164-1.318-71.475-1.365-20.023-4.288-38.545-11.674-56.371-17.323-41.818-50.547-75.042-92.365-92.365-17.826-7.386-36.348-10.308-56.371-11.674-19.311-1.318-42.897-1.318-71.475-1.318h-1.463c-22.895 0-27.439-0.269-31.138-1.143-6.443-1.519-12.45-4.523-17.532-8.764-2.918-2.436-5.862-5.914-19.597-24.226l-63.014-84.019c-3.985-5.316-8.486-11.324-12.821-16.145-4.779-5.312-12.723-13.137-24.7-17.796-14.921-5.803-31.475-5.803-46.396 0-11.977 4.659-19.921 12.484-24.7 17.796-4.335 4.821-8.836 10.829-12.821 16.145l-63.014 84.019c-13.736 18.313-16.677 21.79-19.595 24.226-5.085 4.241-11.089 7.245-17.536 8.764-3.698 0.875-8.243 1.143-31.136 1.143h-1.462c-28.578 0-52.167 0-71.478 1.318-20.023 1.365-38.544 4.288-56.371 11.674-41.818 17.323-75.043 50.547-92.364 92.365-7.384 17.826-10.308 36.348-11.674 56.371-1.318 19.311-1.318 42.897-1.317 71.475v246.426c0 34.345-0.001 62.691 1.885 85.782 1.96 23.983 6.165 46.029 16.716 66.737 16.362 32.113 42.471 58.222 74.584 74.584 20.707 10.551 42.754 14.757 66.737 16.716 23.091 1.886 51.437 1.886 85.782 1.885h361.924zM691.503 567.163c16.661 16.663 16.661 43.677 0 60.34s-43.678 16.662-60.339 0l-161.83-161.831-55.163 55.164c-16.663 16.663-43.677 16.663-60.34 0-16.662-16.661-16.662-43.678 0-60.339l85.334-85.333c16.661-16.661 43.678-16.661 60.339 0l192 192z" />
<glyph unicode="&#xe925;" glyph-name="annotation-dots" d="M692.962 874.667h-361.924c-34.345 0-62.691 0.001-85.782-1.885-23.983-1.96-46.029-6.165-66.737-16.716-32.113-16.362-58.222-42.471-74.584-74.584-10.551-20.707-14.757-42.754-16.716-66.737-1.886-23.091-1.886-51.436-1.885-85.782v-246.426c0-28.578 0-52.164 1.317-71.475 1.366-20.023 4.29-38.545 11.674-56.371 17.322-41.818 50.546-75.042 92.364-92.365 17.827-7.386 36.348-10.308 56.371-11.674 19.311-1.318 42.9-1.318 71.478-1.318h1.462c22.893 0 27.438-0.269 31.136-1.143 6.447-1.519 12.451-4.523 17.536-8.764 2.918-2.436 5.859-5.914 19.595-24.226l63.014-84.019c3.985-5.316 8.486-11.324 12.821-16.145 4.779-5.312 12.723-13.137 24.7-17.796 14.921-5.803 31.475-5.803 46.396 0 11.977 4.659 19.921 12.484 24.7 17.796 4.335 4.821 8.836 10.829 12.821 16.145l63.014 84.019c13.734 18.313 16.678 21.79 19.597 24.226 5.082 4.241 11.089 7.245 17.532 8.764 3.699 0.875 8.243 1.143 31.138 1.143h1.463c28.578 0 52.164 0 71.475 1.318 20.023 1.365 38.545 4.288 56.371 11.674 41.818 17.323 75.042 50.547 92.365 92.365 7.386 17.826 10.308 36.348 11.674 56.371 1.318 19.311 1.318 42.897 1.318 71.475v246.426c0 34.345 0 62.691-1.886 85.781-1.958 23.983-6.165 46.029-16.717 66.737-16.363 32.113-42.47 58.222-74.581 74.584-20.71 10.551-42.756 14.757-66.739 16.716-23.091 1.886-51.435 1.886-85.781 1.885zM256 512c0 35.346 28.654 64 64 64s64-28.654 64-64c0-35.345-28.654-64-64-64s-64 28.655-64 64zM448 512c0 35.346 28.655 64 64 64s64-28.654 64-64c0-35.345-28.655-64-64-64s-64 28.655-64 64zM704 576c-35.345 0-64-28.654-64-64s28.655-64 64-64 64 28.655 64 64c0 35.346-28.655 64-64 64z" />
<glyph unicode="&#xe926;" glyph-name="annotation-heart" d="M692.962 874.667h-361.924c-34.345 0-62.691 0.001-85.782-1.885-23.983-1.96-46.029-6.165-66.737-16.716-32.113-16.362-58.222-42.471-74.584-74.584-10.551-20.707-14.757-42.754-16.716-66.737-1.886-23.091-1.886-51.436-1.885-85.782v-246.426c0-28.578 0-52.164 1.317-71.475 1.366-20.023 4.29-38.545 11.674-56.371 17.322-41.818 50.546-75.042 92.364-92.365 17.827-7.386 36.348-10.308 56.371-11.674 19.311-1.318 42.9-1.318 71.478-1.318h1.462c22.893 0 27.438-0.269 31.136-1.143 6.447-1.519 12.451-4.523 17.536-8.764 2.918-2.436 5.859-5.914 19.595-24.226l63.014-84.019c3.985-5.316 8.486-11.324 12.821-16.145 4.779-5.312 12.723-13.137 24.7-17.796 14.921-5.803 31.475-5.803 46.396 0 11.977 4.659 19.921 12.484 24.7 17.796 4.335 4.821 8.836 10.829 12.821 16.145l63.014 84.019c13.734 18.313 16.678 21.79 19.597 24.226 5.082 4.241 11.089 7.245 17.532 8.764 3.699 0.875 8.243 1.143 31.138 1.143h1.463c28.578 0 52.164 0 71.475 1.318 20.023 1.365 38.545 4.288 56.371 11.674 41.818 17.323 75.042 50.547 92.365 92.365 7.386 17.826 10.308 36.348 11.674 56.371 1.318 19.311 1.318 42.897 1.318 71.475v246.426c0 34.345 0 62.691-1.886 85.781-1.958 23.983-6.165 46.029-16.717 66.737-16.363 32.113-42.47 58.222-74.581 74.584-20.71 10.551-42.756 14.757-66.739 16.716-23.091 1.886-51.435 1.886-85.781 1.885zM378.107 618.263c42.753 35.514 99.653 25.082 133.778-13.702 34.121 38.784 90.287 48.843 133.773 13.702 43.49-35.141 48.772-94.893 15.198-136.894-19.964-24.977-68.864-69.769-105.225-101.973-15.010-13.295-22.515-19.942-31.548-22.639-7.731-2.308-16.67-2.308-24.397 0-9.037 2.697-16.542 9.344-31.552 22.639-36.361 32.205-85.26 76.996-105.225 101.973-33.574 42.001-27.555 101.379 15.198 136.894z" />
<glyph unicode="&#xe927;" glyph-name="annotation-info" d="M692.962 874.667c34.347 0 62.69 0.001 85.781-1.885 23.983-1.96 46.029-6.165 66.739-16.716 32.111-16.362 58.219-42.471 74.581-74.584 10.551-20.707 14.758-42.754 16.717-66.737 1.886-23.091 1.886-51.436 1.886-85.781v-246.426c0-28.578 0-52.164-1.318-71.475-1.365-20.023-4.288-38.545-11.674-56.371-17.323-41.818-50.547-75.042-92.365-92.365-17.826-7.386-36.348-10.308-56.371-11.674-19.311-1.318-42.897-1.318-71.475-1.318h-1.463c-22.895 0-27.439-0.269-31.138-1.143-6.443-1.519-12.45-4.523-17.532-8.764-2.918-2.436-5.862-5.914-19.597-24.226l-63.014-84.019c-3.985-5.316-8.486-11.324-12.821-16.145-4.779-5.312-12.723-13.137-24.7-17.796-14.921-5.803-31.475-5.803-46.396 0-11.977 4.659-19.921 12.484-24.7 17.796-4.335 4.821-8.836 10.829-12.821 16.145l-63.014 84.019c-13.736 18.313-16.677 21.79-19.595 24.226-5.085 4.241-11.089 7.245-17.536 8.764-3.698 0.875-8.243 1.143-31.136 1.143h-1.462c-28.578 0-52.167 0-71.478 1.318-20.023 1.365-38.544 4.288-56.371 11.674-41.818 17.323-75.043 50.547-92.364 92.365-7.384 17.826-10.308 36.348-11.674 56.371-1.318 19.311-1.318 42.897-1.317 71.475v246.426c0 34.345-0.001 62.691 1.885 85.782 1.96 23.983 6.165 46.029 16.716 66.737 16.362 32.113 42.471 58.222 74.584 74.584 20.707 10.551 42.754 14.757 66.737 16.716 23.091 1.886 51.437 1.886 85.782 1.885h361.924zM512 704c-23.565 0-42.667-19.103-42.667-42.667s19.102-42.667 42.667-42.667h0.427c23.565 0 42.667 19.102 42.667 42.667s-19.102 42.667-42.667 42.667h-0.427zM554.667 512c0 23.564-19.102 42.667-42.667 42.667s-42.667-19.103-42.667-42.667v-149.333c0-23.565 19.102-42.667 42.667-42.667s42.667 19.102 42.667 42.667v149.333z" />
<glyph unicode="&#xe928;" glyph-name="annotation-plus" d="M692.962 874.667h-361.924c-34.345 0-62.691 0.001-85.782-1.885-23.983-1.96-46.029-6.165-66.737-16.716-32.113-16.362-58.222-42.471-74.584-74.584-10.551-20.707-14.757-42.754-16.716-66.737-1.886-23.091-1.886-51.436-1.885-85.782v-246.426c0-28.578 0-52.164 1.317-71.475 1.366-20.023 4.29-38.545 11.674-56.371 17.322-41.818 50.546-75.042 92.364-92.365 17.827-7.386 36.348-10.308 56.371-11.674 19.311-1.318 42.9-1.318 71.478-1.318h1.462c22.893 0 27.438-0.269 31.136-1.143 6.447-1.519 12.451-4.523 17.536-8.764 2.918-2.436 5.859-5.914 19.595-24.226l63.014-84.019c3.985-5.316 8.486-11.324 12.821-16.145 4.779-5.312 12.723-13.137 24.7-17.796 14.921-5.803 31.475-5.803 46.396 0 11.977 4.659 19.921 12.484 24.7 17.796 4.335 4.821 8.836 10.829 12.821 16.145l63.014 84.019c13.734 18.313 16.678 21.79 19.597 24.226 5.082 4.241 11.089 7.245 17.532 8.764 3.699 0.875 8.243 1.143 31.138 1.143h1.463c28.578 0 52.164 0 71.475 1.318 20.023 1.365 38.545 4.288 56.371 11.674 41.818 17.323 75.042 50.547 92.365 92.365 7.386 17.826 10.308 36.348 11.674 56.371 1.318 19.311 1.318 42.897 1.318 71.475v246.426c0 34.345 0 62.691-1.886 85.781-1.958 23.983-6.165 46.029-16.717 66.737-16.363 32.113-42.47 58.222-74.581 74.584-20.71 10.551-42.756 14.757-66.739 16.716-23.091 1.886-51.435 1.886-85.781 1.885zM512 682.667c23.565 0 42.667-19.103 42.667-42.667v-85.333h85.333c23.565 0 42.667-19.103 42.667-42.667s-19.102-42.667-42.667-42.667h-85.333v-85.333c0-23.565-19.102-42.667-42.667-42.667s-42.667 19.102-42.667 42.667v85.333h-85.333c-23.564 0-42.667 19.102-42.667 42.667s19.103 42.667 42.667 42.667h85.333v85.333c0 23.564 19.102 42.667 42.667 42.667z" />
<glyph unicode="&#xe929;" glyph-name="annotation-question" d="M692.962 874.667c34.347 0 62.69 0.001 85.781-1.885 23.983-1.96 46.029-6.165 66.739-16.716 32.111-16.362 58.219-42.471 74.581-74.584 10.551-20.707 14.758-42.754 16.717-66.737 1.886-23.091 1.886-51.436 1.886-85.781v-246.426c0-28.578 0-52.164-1.318-71.475-1.365-20.023-4.288-38.545-11.674-56.371-17.323-41.818-50.547-75.042-92.365-92.365-17.826-7.386-36.348-10.308-56.371-11.674-19.311-1.318-42.897-1.318-71.475-1.318h-1.463c-22.895 0-27.439-0.269-31.138-1.143-6.443-1.519-12.45-4.523-17.532-8.764-2.918-2.436-5.862-5.914-19.597-24.226l-63.014-84.019c-3.985-5.316-8.486-11.324-12.821-16.145-4.779-5.312-12.723-13.137-24.7-17.796-14.921-5.803-31.475-5.803-46.396 0-11.977 4.659-19.921 12.484-24.7 17.796-4.335 4.821-8.836 10.829-12.821 16.145l-63.014 84.019c-13.736 18.313-16.677 21.79-19.595 24.226-5.085 4.241-11.089 7.245-17.536 8.764-3.698 0.875-8.243 1.143-31.136 1.143h-1.462c-28.578 0-52.167 0-71.478 1.318-20.023 1.365-38.544 4.288-56.371 11.674-41.818 17.323-75.043 50.547-92.364 92.365-7.384 17.826-10.308 36.348-11.674 56.371-1.318 19.311-1.318 42.897-1.317 71.475v246.426c0 34.345-0.001 62.691 1.885 85.782 1.96 23.983 6.165 46.029 16.716 66.737 16.362 32.113 42.471 58.222 74.584 74.584 20.707 10.551 42.754 14.757 66.737 16.716 23.091 1.886 51.437 1.886 85.782 1.885h361.924zM490.172 611.323c10.846 6.373 23.595 8.703 35.994 6.576 12.395-2.126 23.642-8.572 31.74-18.194 8.102-9.623 12.535-21.802 12.518-34.38v-0.064c0-9.326-7.561-22.176-28.966-36.447-9.404-6.268-19.11-11.153-26.637-14.498-3.703-1.643-6.729-2.85-8.725-3.614-0.998-0.38-1.728-0.644-2.15-0.794l-0.393-0.137 0.068 0.021c-22.323-7.471-34.385-31.616-26.935-53.952 7.45-22.357 31.612-34.436 53.969-26.987l0.051 0.017c1.937 0.653 3.857 1.361 5.764 2.086 3.247 1.237 7.718 3.029 13.009 5.38 10.462 4.651 24.734 11.755 39.313 21.474 26.556 17.707 66.957 52.813 66.965 107.43 0.038 32.715-11.499 64.389-32.567 89.417-21.077 25.040-50.338 41.812-82.598 47.345s-65.438-0.529-93.653-17.113c-28.219-16.584-49.657-42.619-60.519-73.495-7.82-22.228 3.862-46.588 26.091-54.407s46.588 3.861 54.409 26.090c4.173 11.866 12.412 21.871 23.253 28.244zM518.396 384c-23.565 0-42.667-19.102-42.667-42.667s19.102-42.667 42.667-42.667h0.427c23.565 0 42.667 19.102 42.667 42.667s-19.102 42.667-42.667 42.667h-0.427z" />
<glyph unicode="&#xe92a;" glyph-name="annotation-x" d="M692.962 874.667h-361.924c-34.345 0-62.691 0.001-85.782-1.885-23.983-1.96-46.029-6.165-66.737-16.716-32.113-16.362-58.222-42.471-74.584-74.584-10.551-20.707-14.757-42.754-16.716-66.737-1.886-23.091-1.886-51.436-1.885-85.782v-246.426c0-28.578 0-52.164 1.317-71.475 1.366-20.023 4.29-38.545 11.674-56.371 17.322-41.818 50.546-75.042 92.364-92.365 17.827-7.386 36.348-10.308 56.371-11.674 19.311-1.318 42.9-1.318 71.478-1.318h1.462c22.893 0 27.438-0.269 31.136-1.143 6.447-1.519 12.451-4.523 17.536-8.764 2.918-2.436 5.859-5.914 19.595-24.226l63.014-84.019c3.985-5.316 8.486-11.324 12.821-16.145 4.779-5.312 12.723-13.137 24.7-17.796 14.921-5.803 31.475-5.803 46.396 0 11.977 4.659 19.921 12.484 24.7 17.796 4.335 4.821 8.836 10.829 12.821 16.145l63.014 84.019c13.734 18.313 16.678 21.79 19.597 24.226 5.082 4.241 11.089 7.245 17.532 8.764 3.699 0.875 8.243 1.143 31.138 1.143h1.463c28.578 0 52.164 0 71.475 1.318 20.023 1.365 38.545 4.288 56.371 11.674 41.818 17.323 75.042 50.547 92.365 92.365 7.386 17.826 10.308 36.348 11.674 56.371 1.318 19.311 1.318 42.897 1.318 71.475v246.426c0 34.345 0 62.691-1.886 85.781-1.958 23.983-6.165 46.029-16.717 66.737-16.363 32.113-42.47 58.222-74.581 74.584-20.71 10.551-42.756 14.757-66.739 16.716-23.091 1.886-51.435 1.886-85.781 1.885zM375.163 648.837c16.663 16.662 43.677 16.662 60.34 0l76.497-76.497 76.497 76.497c16.661 16.662 43.678 16.662 60.339 0s16.661-43.677 0-60.34l-76.497-76.497 76.497-76.497c16.661-16.661 16.661-43.678 0-60.339s-43.678-16.661-60.339 0l-76.497 76.497-76.497-76.497c-16.662-16.661-43.677-16.661-60.34 0s-16.662 43.678 0 60.339l76.497 76.497-76.497 76.497c-16.662 16.663-16.662 43.677 0 60.34z" />
<glyph unicode="&#xe92b;" glyph-name="announcement-01" d="M938.667 661.334c23.565 0 42.667-19.103 42.667-42.667v-170.667c0-23.565-19.102-42.667-42.667-42.667s-42.667 19.102-42.667 42.667v170.667c0 23.564 19.102 42.667 42.667 42.667zM706.854 868.639c12.476 5.629 30.643 12.879 50.185 10.485 24.461-2.996 44.693-15.011 59.029-35.052 11.264-15.744 13.73-34.425 14.801-47.896 1.131-14.239 1.131-32.373 1.131-53.184v-419.314c0-20.813 0-38.946-1.131-53.188-1.071-13.47-3.537-32.149-14.801-47.893-14.336-20.041-34.569-32.055-59.029-35.051-19.541-2.394-37.709 4.855-50.185 10.483-13.551 6.114-30.293 15.241-49.779 25.865l-1.472 0.806c-66.931 36.484-145.476 70.071-207.603 73.651 0-46.711-0.017-93.427 0-140.139 0.004-8.119 0.009-15.1-0.614-21.423-5.986-60.774-54.068-108.855-114.839-114.837-6.784-0.67-14.322-0.619-23.213-0.619s-16.429-0.051-23.213 0.619c-60.771 5.982-108.852 54.063-114.837 114.837-0.623 6.323-0.62 13.303-0.617 21.423 0.019 46.993 0 93.986 0 140.979-2.386 0.107-4.696 0.235-6.928 0.388-14.073 0.96-28.149 3.072-42.055 8.832-31.363 12.992-56.282 37.909-69.273 69.274-5.76 13.905-7.872 27.981-8.833 42.052-0.912 13.367-0.911 29.517-0.911 48.23v54.327c-0.001 34.346-0.001 62.692 1.885 85.783 1.96 23.983 6.165 46.029 16.716 66.736 16.363 32.113 42.471 58.222 74.584 74.584 20.707 10.551 42.754 14.756 66.736 16.716 23.091 1.887 51.437 1.886 85.783 1.885h148.962c63.62 0 147.447 35.363 218.27 73.969l1.472 0.805c19.49 10.623 36.228 19.749 49.779 25.864z" />
<glyph unicode="&#xe92c;" glyph-name="announcement-02" d="M129.605 350.993c-53.040 43.025-86.938 108.723-86.938 182.341 0 129.603 105.064 234.667 234.667 234.667h160c76.826 0 153.929 38.894 219.742 74.774 19.49 10.623 36.228 19.749 49.779 25.864 12.476 5.629 30.643 12.879 50.185 10.485 24.461-2.996 44.693-15.011 59.029-35.052 11.264-15.744 13.73-34.425 14.801-47.896 1.997-25.097 1.131-50.438 1.131-75.601 85.504-19.402 149.333-95.868 149.333-187.242s-63.829-167.842-149.333-187.243c0-25.161 0.866-50.5-1.131-75.601-1.071-13.47-3.537-32.149-14.801-47.893-14.336-20.041-34.569-32.055-59.029-35.051-19.541-2.394-37.709 4.855-50.185 10.483-17.549 7.919-34.364 17.459-51.251 26.671-59.477 32.418-128.119 62.554-186.27 71.377 0-66.513 5.828-135.509-0.597-201.766-5.909-60.924-54.124-109.137-115.046-115.046-13.536-1.314-27.943-1.28-41.498-0.171-50.88 4.16-94.423 38.157-110.8 86.511-1.693 4.996-3.044 10.406-4.599 16.64l-67.187 268.749zM832 435.541c37.675 16.461 64 54.050 64 97.792 0 43.74-26.325 81.331-64 97.791v-195.583z" />
<glyph unicode="&#xe92d;" glyph-name="announcement-03" d="M790.554 874.656c-65.22 0.004-383.891-68.867-571.672-103.008-33.958-6.154-59.34-10.754-80.792-21.292-43.398-21.318-75.717-60.043-88.928-106.554-14.343-50.5-14.268-128.039 0-178.275 13.21-46.511 45.53-85.235 88.928-106.556 10.149-4.983 21.177-8.64 33.576-11.759l16.011-224.149c3.575-50.133 26.589-96.772 80.892-101.073 45.469-3.601 93.681-3.712 139.285 0.124 65.738 5.534 81.409 61.901 77.147 117.231l-11.699 152.081c100.565-18.283 214.447-58.615 316.851-56.764 64.047 0.405 112.422 48.102 142.345 103.667 30.985 57.54 48.841 134.101 48.841 216.332s-17.856 158.793-48.841 216.332c-29.858 55.45-78.093 103.063-141.943 103.662zM792.444 320.132l-20.139 3.661c-15.582 6.707-33.805 23.061-50.995 54.993-23.066 42.833-38.639 104.939-38.639 175.876s15.573 133.041 38.639 175.876c14.234 26.438 29.175 42.196 42.739 50.643 5.286 3.293 11.375 4.922 17.502 6.036 7.215 1.312 14.711 2.025 21.623-0.432 16.247-5.775 35.806-22.107 54.191-56.247 23.061-42.835 38.639-104.94 38.639-175.876s-15.578-133.043-38.639-175.876c-22.656-42.069-47.095-57.101-64.922-58.654z" />
<glyph unicode="&#xe92e;" glyph-name="archive" d="M42.667 746.667c0 70.692 57.308 128 128 128h682.667c70.694 0 128-57.308 128-128s-57.306-128-128-128h-682.667c-70.692 0-128 57.308-128 128zM170.667 533.333h682.667c23.565 0 42.667-19.102 42.667-42.667v-223.629c0-34.347 0-62.69-1.886-85.781-1.958-23.983-6.165-46.029-16.717-66.739-16.363-32.111-42.47-58.219-74.581-74.581-20.71-10.551-42.756-14.758-66.739-16.717-23.091-1.886-51.435-1.886-85.781-1.886h-276.592c-34.345 0-62.691 0-85.782 1.886-23.983 1.958-46.029 6.165-66.736 16.717-32.113 16.363-58.222 42.47-74.584 74.581-10.551 20.71-14.756 42.756-16.716 66.739-1.886 23.091-1.886 51.435-1.885 85.781v223.629c0 23.565 19.103 42.667 42.667 42.667zM426.667 405.333c-23.564 0-42.667-19.102-42.667-42.667s19.103-42.667 42.667-42.667h170.667c23.565 0 42.667 19.102 42.667 42.667s-19.102 42.667-42.667 42.667h-170.667z" />
<glyph unicode="&#xe92f;" glyph-name="arrow-block-down" d="M417.147 874.666c63.237-0.024 126.473-0.024 189.709 0 5.082 0.002 11.149 0.004 16.499-0.433 6.195-0.506 15.070-1.805 24.367-6.543 12.045-6.136 21.833-15.927 27.968-27.969 4.74-9.299 6.037-18.173 6.545-24.369 0.435-5.347 0.435-11.417 0.431-16.499 0-0.334 0-0.663 0-0.987v-392.533h128c17.259 0 32.815-10.398 39.42-26.338 6.605-15.945 2.953-34.295-9.25-46.498l-298.667-298.667c-16.661-16.661-43.678-16.661-60.339 0l-298.666 298.667c-12.203 12.203-15.853 30.554-9.249 46.498 6.604 15.94 22.162 26.338 39.419 26.338h128v392.533c0 0.324 0 0.654 0 0.987-0.002 5.082-0.004 11.152 0.433 16.499 0.506 6.196 1.805 15.070 6.543 24.369 6.136 12.043 15.927 21.833 27.969 27.969 9.299 4.738 18.173 6.037 24.369 6.543 5.347 0.437 11.416 0.435 16.499 0.433z" />
<glyph unicode="&#xe930;" glyph-name="arrow-block-left" d="M442.995 786.084c15.945-6.604 26.338-22.162 26.338-39.419v-128h393.519c5.086 0.002 11.153 0.004 16.499-0.433 6.195-0.506 15.070-1.805 24.371-6.543 12.041-6.136 21.833-15.927 27.968-27.969 4.74-9.299 6.037-18.173 6.545-24.369 0.435-5.347 0.435-11.416 0.431-16.498-0.030-63.237-0.030-126.473 0-189.71 0.004-5.082 0.004-11.149-0.431-16.499-0.508-6.195-1.805-15.070-6.545-24.367-6.135-12.045-15.927-21.833-27.968-27.968-9.301-4.74-18.176-6.037-24.371-6.545-5.346-0.435-11.418-0.435-16.499-0.431h-393.519v-128c0-17.259-10.394-32.815-26.338-39.42s-34.296-2.953-46.499 9.25l-298.667 298.667c-16.662 16.661-16.662 43.678 0 60.339l298.667 298.666c12.203 12.203 30.554 15.853 46.499 9.249z" />
<glyph unicode="&#xe931;" glyph-name="arrow-block-right" d="M581.005 786.084c15.945 6.604 34.295 2.954 46.498-9.249l298.667-298.666c16.661-16.661 16.661-43.678 0-60.339l-298.667-298.667c-12.203-12.203-30.554-15.855-46.498-9.25-15.94 6.605-26.338 22.161-26.338 39.42v128c-131.173 0-262.346 0.047-393.52 0-5.082-0.004-11.152-0.004-16.499 0.431-6.196 0.508-15.070 1.805-24.369 6.545-12.043 6.135-21.833 15.923-27.969 27.968-4.738 9.297-6.037 18.172-6.543 24.367-0.437 5.35-0.435 11.418-0.433 16.499 0.024 63.236 0.024 126.473 0 189.709-0.002 5.082-0.004 11.152 0.433 16.499 0.506 6.196 1.805 15.070 6.543 24.369 6.136 12.042 15.927 21.833 27.969 27.969 9.299 4.738 18.173 6.037 24.369 6.543 5.347 0.437 11.417 0.434 16.499 0.433 131.174-0.052 262.347 0 393.52 0v128c0 17.257 10.398 32.815 26.338 39.419z" />
<glyph unicode="&#xe932;" glyph-name="arrow-block-up" d="M481.83 862.17c16.661 16.662 43.678 16.662 60.339 0l298.667-298.667c12.203-12.203 15.855-30.554 9.25-46.499s-22.161-26.338-39.42-26.338h-128v-393.519c0.004-5.082 0.004-11.153-0.431-16.499-0.508-6.195-1.805-15.070-6.545-24.371-6.135-12.041-15.923-21.833-27.968-27.968-9.297-4.74-18.172-6.037-24.367-6.545-5.35-0.435-11.418-0.435-16.499-0.431-63.236 0.030-126.473 0.030-189.71 0-5.082-0.004-11.152-0.004-16.498 0.431-6.196 0.508-15.070 1.805-24.369 6.545-12.042 6.135-21.833 15.927-27.969 27.968-4.738 9.301-6.037 18.176-6.543 24.371-0.437 5.346-0.434 11.413-0.433 16.499v393.519h-128c-17.257 0-32.815 10.394-39.419 26.338s-2.954 34.296 9.249 46.499l298.666 298.667z" />
<glyph unicode="&#xe933;" glyph-name="arrow-circle-broken-down" d="M395.765 902.829c21.297 5.426 31.947 8.14 43.373 4.648 9.118-2.787 19.038-10.497 23.991-18.645 6.204-10.21 6.204-22.842 6.204-48.106v-460.386l-97.83 97.83c-16.663 16.661-43.677 16.661-60.34 0s-16.662-43.678 0-60.339l170.667-170.667c16.661-16.661 43.678-16.661 60.339 0l170.667 170.667c16.661 16.661 16.661 43.678 0 60.339s-43.678 16.661-60.339 0l-97.83-97.83v460.386c0 25.264 0 37.896 6.204 48.106 4.954 8.148 14.874 15.858 23.991 18.645 11.426 3.492 22.076 0.779 43.375-4.648 202.982-51.718 353.097-235.743 353.097-454.829 0-259.204-210.129-469.333-469.333-469.333-259.206 0-469.333 210.129-469.333 469.333 0 219.086 150.115 403.111 353.098 454.829z" />
<glyph unicode="&#xe934;" glyph-name="arrow-circle-broken-down-left" d="M751.42 851.803c18.897-11.222 28.348-16.833 33.958-27.383 4.476-8.419 6.037-20.885 3.78-30.148-2.833-11.607-11.767-20.54-29.628-38.404l-325.542-325.541v138.352c0 23.564-19.104 42.667-42.668 42.667s-42.667-19.103-42.667-42.667v-241.358c0-23.565 19.103-42.667 42.667-42.667h241.358c23.565 0 42.667 19.102 42.667 42.667s-19.102 42.667-42.667 42.667h-138.351l325.542 325.54c17.865 17.864 26.795 26.796 38.404 29.628 9.263 2.26 21.726 0.697 30.148-3.78 10.547-5.61 16.158-15.058 27.379-33.955 106.961-180.102 82.982-416.373-71.932-571.291-183.287-183.283-480.453-183.283-663.738 0-183.286 183.287-183.286 480.453 0 663.738 154.917 154.917 391.188 178.895 571.289 71.934z" />
<glyph unicode="&#xe935;" glyph-name="arrow-circle-broken-down-right" d="M108.197 687.421c11.222 18.897 16.833 28.345 27.383 33.955 8.419 4.477 20.885 6.041 30.148 3.78 11.607-2.832 20.54-11.764 38.404-29.628l325.541-325.54h-138.352c-23.564 0-42.667-19.102-42.667-42.667s19.103-42.667 42.667-42.667h241.358c23.565 0 42.667 19.102 42.667 42.667v241.358c0 23.564-19.102 42.667-42.667 42.667s-42.667-19.103-42.667-42.667v-138.352l-325.54 325.541c-17.864 17.864-26.796 26.796-29.628 38.404-2.26 9.263-0.697 21.73 3.78 30.148 5.61 10.549 15.058 16.16 33.955 27.383 180.102 106.961 416.373 82.983 571.291-71.934 183.283-183.286 183.283-480.451 0-663.738-183.287-183.283-480.453-183.283-663.738 0-154.917 154.918-178.895 391.189-71.934 571.291z" />
<glyph unicode="&#xe936;" glyph-name="arrow-circle-broken-left" d="M966.827 564.235c5.427-21.297 8.141-31.947 4.651-43.373-2.79-9.118-10.496-19.038-18.645-23.991-10.21-6.204-22.844-6.204-48.107-6.204h-460.386l97.83 97.83c16.661 16.663 16.661 43.677 0 60.34s-43.678 16.662-60.339 0l-170.667-170.667c-16.662-16.661-16.662-43.678 0-60.339l170.667-170.667c16.661-16.661 43.678-16.661 60.339 0s16.661 43.678 0 60.339l-97.83 97.83h460.386c25.263 0 37.897 0 48.107-6.204 8.149-4.954 15.855-14.874 18.645-23.991 3.49-11.426 0.777-22.076-4.651-43.375-51.716-202.982-235.742-353.097-454.827-353.097-259.206 0-469.333 210.129-469.333 469.333 0 259.206 210.128 469.333 469.333 469.333 219.085 0 403.11-150.115 454.827-353.098z" />
<glyph unicode="&#xe937;" glyph-name="arrow-circle-broken-right" d="M57.169 331.763c-5.426 21.299-8.14 31.949-4.648 43.375 2.787 9.118 10.497 19.038 18.645 23.991 10.211 6.204 22.842 6.204 48.106 6.204h460.384l-97.83-97.83c-16.661-16.661-16.661-43.678 0-60.339s43.678-16.661 60.339 0l170.667 170.667c16.666 16.661 16.666 43.678 0 60.339l-170.667 170.667c-16.661 16.662-43.678 16.662-60.339 0s-16.661-43.677 0-60.34l97.83-97.83h-460.384c-25.264 0-37.896 0-48.106 6.204-8.148 4.954-15.858 14.874-18.645 23.991-3.492 11.426-0.779 22.076 4.648 43.373 51.718 202.984 235.743 353.098 454.827 353.098 259.209 0 469.333-210.128 469.333-469.333s-210.125-469.333-469.333-469.333c-219.084 0-403.109 150.114-454.827 353.097z" />
<glyph unicode="&#xe938;" glyph-name="arrow-circle-broken-up" d="M628.237-6.827c-21.299-5.427-31.949-8.141-43.375-4.651-9.118 2.79-19.038 10.496-23.991 18.645-6.204 10.21-6.204 22.844-6.204 48.107v460.386l97.83-97.83c16.661-16.661 43.678-16.661 60.339 0s16.661 43.678 0 60.339l-170.667 170.667c-16.661 16.662-43.678 16.662-60.339 0l-170.667-170.667c-16.662-16.661-16.662-43.678 0-60.339s43.677-16.661 60.34 0l97.83 97.83v-460.386c0-25.263 0-37.897-6.204-48.107-4.954-8.149-14.874-15.855-23.991-18.645-11.426-3.49-22.076-0.777-43.373 4.651-202.984 51.716-353.098 235.742-353.098 454.827 0 259.206 210.128 469.333 469.333 469.333s469.333-210.128 469.333-469.333c0-219.085-150.114-403.11-353.097-454.827z" />
<glyph unicode="&#xe939;" glyph-name="arrow-circle-broken-up-left" d="M915.802 208.58c-11.221-18.897-16.832-28.348-27.379-33.958-8.422-4.476-20.885-6.037-30.148-3.78-11.61 2.833-20.54 11.767-38.404 29.628l-325.542 325.542h138.351c23.565 0 42.667 19.104 42.667 42.668s-19.102 42.667-42.667 42.667h-241.358c-23.564 0-42.667-19.103-42.667-42.667v-241.358c0-23.565 19.103-42.667 42.667-42.667s42.668 19.102 42.668 42.667v138.351l325.542-325.542c17.86-17.865 26.795-26.795 29.628-38.404 2.257-9.263 0.695-21.726-3.78-30.148-5.611-10.547-15.061-16.158-33.958-27.379-180.1-106.961-416.372-82.982-571.289 71.932-183.286 183.287-183.286 480.453 0 663.738s480.451 183.286 663.738 0c154.914-154.917 178.893-391.188 71.932-571.289z" />
<glyph unicode="&#xe93a;" glyph-name="arrow-circle-broken-up-right" d="M272.579 44.198c-18.897 11.221-28.345 16.832-33.955 27.379-4.477 8.422-6.041 20.885-3.78 30.148 2.832 11.61 11.764 20.54 29.628 38.404l325.54 325.542v-138.351c0-23.565 19.102-42.667 42.667-42.667s42.667 19.102 42.667 42.667v241.358c0 23.564-19.102 42.667-42.667 42.667h-241.358c-23.564 0-42.667-19.103-42.667-42.667s19.103-42.668 42.667-42.668h138.352l-325.541-325.542c-17.864-17.86-26.796-26.795-38.404-29.628-9.263-2.257-21.73-0.695-30.148 3.78-10.549 5.611-16.16 15.061-27.383 33.958-106.961 180.1-82.983 416.372 71.934 571.288 183.286 183.286 480.451 183.286 663.738 0 183.283-183.286 183.283-480.451 0-663.739-154.918-154.914-391.189-178.893-571.291-71.932z" />
<glyph unicode="&#xe93b;" glyph-name="arrow-circle-down" d="M512 917.333c-259.206 0-469.333-210.128-469.333-469.333 0-259.204 210.128-469.333 469.333-469.333 259.204 0 469.333 210.129 469.333 469.333 0 259.206-210.129 469.333-469.333 469.333zM512 661.333c23.565 0 42.667-19.103 42.667-42.667v-238.327l97.83 97.83c16.661 16.661 43.678 16.661 60.339 0s16.661-43.678 0-60.339l-170.667-170.667c-16.661-16.661-43.678-16.661-60.339 0l-170.667 170.667c-16.662 16.661-16.662 43.678 0 60.339s43.677 16.661 60.34 0l97.83-97.83v238.327c0 23.564 19.102 42.667 42.667 42.667z" />
<glyph unicode="&#xe93c;" glyph-name="arrow-circle-down-left" d="M843.87 779.869c-183.287 183.286-480.453 183.286-663.738 0s-183.286-480.451 0-663.738c183.286-183.283 480.451-183.283 663.738 0 183.283 183.287 183.283 480.453 0 663.738zM662.848 598.849c16.666-16.662 16.666-43.677 0-60.34l-168.521-168.521h138.351c23.565 0 42.667-19.102 42.667-42.667s-19.102-42.667-42.667-42.667h-241.358c-23.564 0-42.667 19.102-42.667 42.667v241.358c0 23.564 19.103 42.667 42.667 42.667s42.668-19.103 42.668-42.667v-138.352l168.521 168.522c16.661 16.663 43.678 16.663 60.339 0z" />
<glyph unicode="&#xe93d;" glyph-name="arrow-circle-down-right" d="M180.131 779.869c-183.286-183.286-183.286-480.451 0-663.738 183.286-183.283 480.451-183.283 663.738 0 183.283 183.287 183.283 480.453 0 663.738-183.287 183.286-480.453 183.286-663.738 0zM361.151 598.849c16.662 16.663 43.677 16.663 60.34 0l168.521-168.522v138.352c0 23.564 19.102 42.667 42.667 42.667s42.667-19.103 42.667-42.667v-241.358c0-23.565-19.102-42.667-42.667-42.667h-241.358c-23.564 0-42.667 19.102-42.667 42.667s19.103 42.667 42.667 42.667h138.352l-168.522 168.521c-16.663 16.662-16.663 43.677 0 60.34z" />
<glyph unicode="&#xe93e;" glyph-name="arrow-circle-left" d="M981.333 448c0 259.206-210.129 469.333-469.333 469.333-259.206 0-469.333-210.128-469.333-469.333 0-259.204 210.128-469.333 469.333-469.333s469.333 210.129 469.333 469.333zM725.333 448c0-23.565-19.102-42.667-42.667-42.667h-238.327l97.83-97.83c16.661-16.661 16.661-43.678 0-60.339s-43.678-16.661-60.339 0l-170.667 170.667c-16.662 16.661-16.662 43.678 0 60.339l170.667 170.667c16.661 16.662 43.678 16.662 60.339 0s16.661-43.677 0-60.34l-97.83-97.83h238.327c23.565 0 42.667-19.102 42.667-42.667z" />
<glyph unicode="&#xe93f;" glyph-name="arrow-circle-right" d="M42.667 448c0-259.204 210.128-469.333 469.333-469.333 259.204 0 469.333 210.129 469.333 469.333 0 259.206-210.129 469.333-469.333 469.333-259.206 0-469.333-210.128-469.333-469.333zM298.667 448c0 23.565 19.103 42.667 42.667 42.667h238.327l-97.83 97.83c-16.661 16.663-16.661 43.677 0 60.34s43.678 16.662 60.339 0l170.667-170.667c16.661-16.661 16.661-43.678 0-60.339l-170.667-170.667c-16.661-16.661-43.678-16.661-60.339 0s-16.661 43.678 0 60.339l97.83 97.83h-238.327c-23.564 0-42.667 19.102-42.667 42.667z" />
<glyph unicode="&#xe940;" glyph-name="arrow-circle-up" d="M512-21.333c259.204 0 469.333 210.129 469.333 469.333 0 259.206-210.129 469.333-469.333 469.333-259.206 0-469.333-210.128-469.333-469.333 0-259.204 210.128-469.333 469.333-469.333zM512 234.667c-23.565 0-42.667 19.102-42.667 42.667v238.327l-97.83-97.83c-16.663-16.661-43.677-16.661-60.34 0s-16.662 43.678 0 60.339l170.667 170.667c16.661 16.662 43.678 16.662 60.339 0l170.667-170.667c16.661-16.661 16.661-43.678 0-60.339s-43.678-16.661-60.339 0l-97.83 97.83v-238.327c0-23.565-19.102-42.667-42.667-42.667z" />
<glyph unicode="&#xe941;" glyph-name="arrow-circle-up-left" d="M843.87 116.13c183.283 183.287 183.283 480.453 0 663.738-183.287 183.286-480.453 183.286-663.738 0s-183.286-480.451 0-663.738c183.286-183.283 480.451-183.283 663.738 0zM662.848 297.152c-16.661-16.666-43.678-16.666-60.339 0l-168.521 168.521v-138.351c0-23.565-19.104-42.667-42.668-42.667s-42.667 19.102-42.667 42.667v241.358c0 23.564 19.103 42.667 42.667 42.667h241.358c23.565 0 42.667-19.103 42.667-42.667s-19.102-42.668-42.667-42.668h-138.351l168.521-168.521c16.666-16.661 16.666-43.678 0-60.339z" />
<glyph unicode="&#xe942;" glyph-name="arrow-circle-up-right" d="M180.131 116.13c183.286-183.283 480.451-183.283 663.738 0 183.283 183.287 183.283 480.453 0 663.739-183.287 183.286-480.453 183.286-663.739 0s-183.286-480.451 0-663.738zM361.151 297.152c-16.663 16.661-16.663 43.678 0 60.339l168.522 168.521h-138.352c-23.564 0-42.667 19.104-42.667 42.668s19.103 42.667 42.667 42.667h241.358c23.565 0 42.667-19.103 42.667-42.667v-241.358c0-23.565-19.102-42.667-42.667-42.667s-42.667 19.102-42.667 42.667v138.351l-168.521-168.521c-16.662-16.666-43.677-16.666-60.34 0z" />
<glyph unicode="&#xe943;" glyph-name="arrow-down" d="M554.667 746.667c0 23.564-19.102 42.667-42.667 42.667s-42.667-19.103-42.667-42.667v-494.327l-225.83 225.83c-16.663 16.661-43.677 16.661-60.34 0s-16.662-43.678 0-60.339l298.667-298.667c16.661-16.661 43.678-16.661 60.339 0l298.667 298.667c16.661 16.661 16.661 43.678 0 60.339s-43.678 16.661-60.339 0l-225.83-225.83v494.327z" />
<glyph unicode="&#xe944;" glyph-name="arrow-down-left" d="M401.673 277.333l353.83 353.83c16.661 16.663 16.661 43.677 0 60.34s-43.678 16.662-60.339 0l-353.83-353.831v323.661c0 23.564-19.103 42.667-42.667 42.667s-42.667-19.103-42.667-42.667v-426.667c0-23.565 19.103-42.667 42.667-42.667h426.667c23.565 0 42.667 19.102 42.667 42.667s-19.102 42.667-42.667 42.667h-323.66z" />
<glyph unicode="&#xe945;" glyph-name="arrow-down-right" d="M328.837 691.503c-16.663 16.662-43.677 16.662-60.34 0s-16.662-43.677 0-60.34l353.831-353.83h-323.661c-23.564 0-42.667-19.102-42.667-42.667s19.103-42.667 42.667-42.667h426.667c23.565 0 42.667 19.102 42.667 42.667v426.667c0 23.564-19.102 42.667-42.667 42.667s-42.667-19.103-42.667-42.667v-323.661l-353.83 353.831z" />
<glyph unicode="&#xe946;" glyph-name="arrow-left" d="M542.17 716.497c16.661 16.663 16.661 43.677 0 60.34s-43.678 16.662-60.339 0l-298.667-298.667c-16.662-16.661-16.662-43.678 0-60.339l298.667-298.667c16.661-16.661 43.678-16.661 60.339 0s16.661 43.678 0 60.339l-225.83 225.83h494.327c23.565 0 42.667 19.102 42.667 42.667s-19.102 42.667-42.667 42.667h-494.327l225.83 225.83z" />
<glyph unicode="&#xe947;" glyph-name="arrow-narrow-down" d="M554.667 789.333c0 23.564-19.102 42.667-42.667 42.667s-42.667-19.103-42.667-42.667v-579.661l-183.163 183.164c-16.663 16.661-43.677 16.661-60.34 0s-16.662-43.678 0-60.339l256-256c16.661-16.661 43.678-16.661 60.339 0l256 256c16.661 16.661 16.661 43.678 0 60.339s-43.678 16.661-60.339 0l-183.164-183.164v579.661z" />
<glyph unicode="&#xe948;" glyph-name="arrow-narrow-down-left" d="M798.17 673.83c16.661 16.663 16.661 43.677 0 60.34s-43.678 16.662-60.339 0l-439.164-439.164v238.327c0 23.564-19.103 42.667-42.667 42.667s-42.667-19.103-42.667-42.667v-341.333c0-23.565 19.103-42.667 42.667-42.667h341.333c23.565 0 42.667 19.102 42.667 42.667s-19.102 42.667-42.667 42.667h-238.327l439.163 439.163z" />
<glyph unicode="&#xe949;" glyph-name="arrow-narrow-down-right" d="M286.17 734.17c-16.663 16.662-43.677 16.662-60.34 0s-16.662-43.677 0-60.34l439.164-439.163h-238.327c-23.564 0-42.667-19.102-42.667-42.667s19.103-42.667 42.667-42.667h341.333c23.565 0 42.667 19.102 42.667 42.667v341.333c0 23.564-19.102 42.667-42.667 42.667s-42.667-19.103-42.667-42.667v-238.327l-439.163 439.164z" />
<glyph unicode="&#xe94a;" glyph-name="arrow-narrow-left" d="M456.836 673.83c16.661 16.663 16.661 43.677 0 60.34s-43.677 16.662-60.34 0l-256-256c-16.662-16.661-16.662-43.678 0-60.339l256-256c16.663-16.661 43.678-16.661 60.34 0s16.661 43.678 0 60.339l-183.163 183.164h579.66c23.565 0 42.667 19.102 42.667 42.667s-19.102 42.667-42.667 42.667h-579.66l183.163 183.163z" />
<glyph unicode="&#xe94b;" glyph-name="arrow-narrow-right" d="M627.503 734.17c-16.661 16.662-43.678 16.662-60.339 0s-16.661-43.677 0-60.34l183.164-183.163h-579.661c-23.564 0-42.667-19.102-42.667-42.667s19.103-42.667 42.667-42.667h579.661l-183.164-183.164c-16.661-16.661-16.661-43.678 0-60.339s43.678-16.661 60.339 0l256 256c16.661 16.661 16.661 43.678 0 60.339l-256 256z" />
<glyph unicode="&#xe94c;" glyph-name="arrow-narrow-up" d="M542.17 819.503c-16.661 16.662-43.678 16.662-60.339 0l-256-256c-16.662-16.663-16.662-43.678 0-60.34s43.677-16.661 60.34 0l183.163 183.163v-579.66c0-23.565 19.102-42.667 42.667-42.667s42.667 19.102 42.667 42.667v579.66l183.164-183.163c16.661-16.661 43.678-16.661 60.339 0s16.661 43.677 0 60.34l-256 256z" />
<glyph unicode="&#xe94d;" glyph-name="arrow-narrow-up-left" d="M256 746.667c-23.564 0-42.667-19.103-42.667-42.667v-341.333c0-23.565 19.103-42.667 42.667-42.667s42.667 19.102 42.667 42.667v238.327l439.164-439.163c16.661-16.661 43.678-16.661 60.339 0s16.661 43.678 0 60.339l-439.163 439.164h238.327c23.565 0 42.667 19.103 42.667 42.667s-19.102 42.667-42.667 42.667h-341.333z" />
<glyph unicode="&#xe94e;" glyph-name="arrow-narrow-up-right" d="M426.667 746.667c-23.564 0-42.667-19.103-42.667-42.667s19.103-42.667 42.667-42.667h238.327l-439.164-439.164c-16.662-16.661-16.662-43.678 0-60.339s43.677-16.661 60.34 0l439.163 439.163v-238.327c0-23.565 19.102-42.667 42.667-42.667s42.667 19.102 42.667 42.667v341.333c0 23.564-19.102 42.667-42.667 42.667h-341.333z" />
<glyph unicode="&#xe94f;" glyph-name="arrow-right" d="M542.17 776.837c-16.661 16.662-43.678 16.662-60.339 0s-16.661-43.677 0-60.34l225.83-225.83h-494.327c-23.564 0-42.667-19.102-42.667-42.667s19.103-42.667 42.667-42.667h494.327l-225.83-225.83c-16.661-16.661-16.661-43.678 0-60.339s43.678-16.661 60.339 0l298.667 298.667c16.661 16.661 16.661 43.678 0 60.339l-298.667 298.667z" />
<glyph unicode="&#xe950;" glyph-name="arrows-down" d="M256 209.673l-97.83 97.83c-16.663 16.661-43.677 16.661-60.34 0s-16.662-43.678 0-60.339l170.667-170.667c16.663-16.661 43.677-16.661 60.34 0l170.666 170.667c16.661 16.661 16.661 43.678 0 60.339s-43.678 16.661-60.339 0l-97.83-97.83v579.661c0 23.564-19.102 42.667-42.667 42.667s-42.667-19.102-42.667-42.667v-579.661zM768 423.006l97.83 97.83c16.661 16.663 43.678 16.663 60.339 0 16.661-16.661 16.661-43.678 0-60.339l-170.667-170.667c-16.661-16.661-43.678-16.661-60.339 0l-170.667 170.667c-16.661 16.661-16.661 43.678 0 60.339 16.661 16.663 43.678 16.663 60.339 0l97.83-97.83v366.327c0 23.564 19.102 42.667 42.667 42.667s42.667-19.102 42.667-42.667v-366.327z" />
<glyph unicode="&#xe951;" glyph-name="arrows-left" d="M584.836 801.83c16.661 16.663 16.661 43.677 0 60.34s-43.678 16.662-60.339 0l-170.667-170.667c-16.662-16.663-16.662-43.677 0-60.34l170.667-170.666c16.661-16.661 43.678-16.661 60.339 0s16.661 43.678 0 60.339l-97.83 97.83h366.327c23.565 0 42.667 19.102 42.667 42.667s-19.102 42.667-42.667 42.667h-366.327l97.83 97.83zM273.673 277.333l97.83 97.83c16.662 16.661 16.662 43.678 0 60.339s-43.677 16.661-60.34 0l-170.667-170.667c-16.662-16.661-16.662-43.678 0-60.339l170.667-170.667c16.663-16.661 43.677-16.661 60.34 0s16.662 43.678 0 60.339l-97.83 97.83h579.66c23.565 0 42.667 19.102 42.667 42.667s-19.102 42.667-42.667 42.667h-579.66z" />
<glyph unicode="&#xe952;" glyph-name="arrow-square-down" d="M761.109 874.667h-498.22c-22.491 0.001-41.895 0.001-57.877-1.304-16.868-1.378-33.645-4.421-49.789-12.647-24.085-12.272-43.666-31.853-55.938-55.938-8.226-16.144-11.269-32.922-12.647-49.789-1.306-15.982-1.305-35.384-1.304-57.875v-498.222c-0.001-22.494-0.001-41.899 1.304-57.877 1.378-16.87 4.421-33.647 12.647-49.792 12.272-24.085 31.853-43.665 55.938-55.936 16.144-8.226 32.922-11.268 49.789-12.646 15.982-1.306 35.385-1.306 57.876-1.306h498.225c22.49 0 41.894 0 57.873 1.306 16.87 1.378 33.647 4.42 49.792 12.646 24.085 12.271 43.665 31.851 55.936 55.936 8.226 16.145 11.268 32.922 12.646 49.792 1.306 15.979 1.306 35.383 1.306 57.873v498.225c0 22.491 0 41.894-1.306 57.876-1.378 16.868-4.42 33.645-12.646 49.789-12.271 24.085-31.851 43.666-55.936 55.938-16.145 8.226-32.922 11.269-49.792 12.647-15.979 1.306-35.383 1.305-57.877 1.304zM512 661.333c23.565 0 42.667-19.103 42.667-42.667v-238.327l97.83 97.83c16.661 16.661 43.678 16.661 60.339 0s16.661-43.678 0-60.339l-170.667-170.667c-16.661-16.661-43.678-16.661-60.339 0l-170.667 170.667c-16.662 16.661-16.662 43.678 0 60.339s43.677 16.661 60.34 0l97.83-97.83v238.327c0 23.564 19.102 42.667 42.667 42.667z" />
<glyph unicode="&#xe953;" glyph-name="arrow-square-down-left" d="M761.109 874.667h-498.22c-22.491 0.001-41.895 0.001-57.877-1.304-16.868-1.378-33.645-4.421-49.789-12.647-24.085-12.272-43.666-31.853-55.938-55.938-8.226-16.144-11.269-32.922-12.647-49.789-1.306-15.982-1.305-35.384-1.304-57.875v-498.222c-0.001-22.494-0.001-41.899 1.304-57.877 1.378-16.87 4.421-33.647 12.647-49.792 12.272-24.085 31.853-43.665 55.938-55.936 16.144-8.226 32.922-11.268 49.789-12.646 15.982-1.306 35.385-1.306 57.876-1.306h498.225c22.49 0 41.894 0 57.873 1.306 16.87 1.378 33.647 4.42 49.792 12.646 24.085 12.271 43.665 31.851 55.936 55.936 8.226 16.145 11.268 32.922 12.646 49.792 1.306 15.979 1.306 35.383 1.306 57.873v498.225c0 22.491 0 41.894-1.306 57.876-1.378 16.868-4.42 33.645-12.646 49.789-12.271 24.085-31.851 43.666-55.936 55.938-16.145 8.226-32.922 11.269-49.792 12.647-15.979 1.306-35.383 1.305-57.877 1.304zM670.17 545.83l-183.164-183.163h153.003c23.565 0 42.667-19.102 42.667-42.667s-19.102-42.667-42.667-42.667h-255.998c-23.564 0-42.667 19.102-42.667 42.667v256c0 23.564 19.102 42.667 42.667 42.667s42.665-19.103 42.665-42.667v-152.981l183.155 183.151c16.661 16.662 43.678 16.662 60.339 0s16.661-43.677 0-60.34z" />
<glyph unicode="&#xe954;" glyph-name="arrow-square-down-right" d="M761.109 874.667h-498.22c-22.491 0.001-41.895 0.001-57.877-1.304-16.868-1.378-33.645-4.421-49.789-12.647-24.085-12.272-43.666-31.853-55.938-55.938-8.226-16.144-11.269-32.922-12.647-49.789-1.306-15.982-1.305-35.384-1.304-57.875v-498.222c-0.001-22.494-0.001-41.899 1.304-57.877 1.378-16.87 4.421-33.647 12.647-49.792 12.272-24.085 31.853-43.665 55.938-55.936 16.144-8.226 32.922-11.268 49.789-12.646 15.982-1.306 35.385-1.306 57.876-1.306h498.225c22.49 0 41.894 0 57.873 1.306 16.87 1.378 33.647 4.42 49.792 12.646 24.085 12.271 43.665 31.851 55.936 55.936 8.226 16.145 11.268 32.922 12.646 49.792 1.306 15.979 1.306 35.383 1.306 57.873v498.225c0 22.491 0 41.894-1.306 57.876-1.378 16.868-4.42 33.645-12.646 49.789-12.271 24.085-31.851 43.666-55.936 55.938-16.145 8.226-32.922 11.269-49.792 12.647-15.979 1.306-35.383 1.305-57.877 1.304zM353.841 606.17c16.662 16.662 43.677 16.662 60.34 0l183.162-183.164v152.994c0 23.564 19.106 42.667 42.667 42.667 23.565 0 42.667-19.103 42.667-42.667v-256c0-23.565-19.102-42.667-42.667-42.667h-255.998c-23.564 0-42.667 19.102-42.667 42.667s19.102 42.667 42.667 42.667h152.992l-183.162 183.163c-16.663 16.663-16.663 43.677 0 60.34z" />
<glyph unicode="&#xe955;" glyph-name="arrow-square-left" d="M761.109 874.667h-498.22c-22.491 0.001-41.895 0.001-57.877-1.304-16.868-1.378-33.645-4.421-49.789-12.647-24.085-12.272-43.666-31.853-55.938-55.938-8.226-16.144-11.269-32.922-12.647-49.789-1.306-15.982-1.305-35.384-1.304-57.875v-498.222c-0.001-22.494-0.001-41.899 1.304-57.877 1.378-16.87 4.421-33.647 12.647-49.792 12.272-24.085 31.853-43.665 55.938-55.936 16.144-8.226 32.922-11.268 49.789-12.646 15.982-1.306 35.385-1.306 57.876-1.306h498.225c22.49 0 41.894 0 57.873 1.306 16.87 1.378 33.647 4.42 49.792 12.646 24.085 12.271 43.665 31.851 55.936 55.936 8.226 16.145 11.268 32.922 12.646 49.792 1.306 15.979 1.306 35.383 1.306 57.873v498.225c0 22.491 0 41.894-1.306 57.876-1.378 16.868-4.42 33.645-12.646 49.789-12.271 24.085-31.851 43.666-55.936 55.938-16.145 8.226-32.922 11.269-49.792 12.647-15.979 1.306-35.383 1.305-57.877 1.304zM542.17 648.837c16.661-16.663 16.661-43.677 0-60.34l-97.83-97.83h238.327c23.565 0 42.667-19.102 42.667-42.667s-19.102-42.667-42.667-42.667h-238.327l97.83-97.83c16.661-16.661 16.661-43.678 0-60.339s-43.678-16.661-60.339 0l-170.667 170.667c-16.662 16.661-16.662 43.678 0 60.339l170.667 170.667c16.661 16.662 43.678 16.662 60.339 0z" />
<glyph unicode="&#xe956;" glyph-name="arrow-square-right" d="M761.109 874.667h-498.22c-22.491 0.001-41.895 0.001-57.877-1.304-16.868-1.378-33.645-4.421-49.789-12.647-24.085-12.272-43.666-31.853-55.938-55.938-8.226-16.144-11.269-32.922-12.647-49.789-1.306-15.982-1.305-35.384-1.304-57.875v-498.222c-0.001-22.494-0.001-41.899 1.304-57.877 1.378-16.87 4.421-33.647 12.647-49.792 12.272-24.085 31.853-43.665 55.938-55.936 16.144-8.226 32.922-11.268 49.789-12.646 15.982-1.306 35.385-1.306 57.876-1.306h498.225c22.49 0 41.894 0 57.873 1.306 16.87 1.378 33.647 4.42 49.792 12.646 24.085 12.271 43.665 31.851 55.936 55.936 8.226 16.145 11.268 32.922 12.646 49.792 1.306 15.979 1.306 35.383 1.306 57.873v498.225c0 22.491 0 41.894-1.306 57.876-1.378 16.868-4.42 33.645-12.646 49.789-12.271 24.085-31.851 43.666-55.936 55.938-16.145 8.226-32.922 11.269-49.792 12.647-15.979 1.306-35.383 1.305-57.877 1.304zM481.83 648.837c16.661 16.662 43.678 16.662 60.339 0l170.667-170.667c16.661-16.661 16.661-43.678 0-60.339l-170.667-170.667c-16.661-16.661-43.678-16.661-60.339 0s-16.661 43.678 0 60.339l97.83 97.83h-238.327c-23.564 0-42.667 19.102-42.667 42.667s19.103 42.667 42.667 42.667h238.327l-97.83 97.83c-16.661 16.663-16.661 43.677 0 60.34z" />
<glyph unicode="&#xe957;" glyph-name="arrow-square-up" d="M761.109 874.667h-498.22c-22.491 0.001-41.895 0.001-57.877-1.304-16.868-1.378-33.645-4.421-49.789-12.647-24.085-12.272-43.666-31.853-55.938-55.938-8.226-16.144-11.269-32.922-12.647-49.789-1.306-15.982-1.305-35.384-1.304-57.875v-498.222c-0.001-22.494-0.001-41.899 1.304-57.877 1.378-16.87 4.421-33.647 12.647-49.792 12.272-24.085 31.853-43.665 55.938-55.936 16.144-8.226 32.922-11.268 49.789-12.646 15.982-1.306 35.385-1.306 57.876-1.306h498.225c22.49 0 41.894 0 57.873 1.306 16.87 1.378 33.647 4.42 49.792 12.646 24.085 12.271 43.665 31.851 55.936 55.936 8.226 16.145 11.268 32.922 12.646 49.792 1.306 15.979 1.306 35.383 1.306 57.873v498.225c0 22.491 0 41.894-1.306 57.876-1.378 16.868-4.42 33.645-12.646 49.789-12.271 24.085-31.851 43.666-55.936 55.938-16.145 8.226-32.922 11.269-49.792 12.647-15.979 1.306-35.383 1.305-57.877 1.304zM481.83 648.837c16.661 16.662 43.678 16.662 60.339 0l170.667-170.667c16.661-16.661 16.661-43.678 0-60.339s-43.678-16.661-60.339 0l-97.83 97.83v-238.327c0-23.565-19.102-42.667-42.667-42.667s-42.667 19.102-42.667 42.667v238.327l-97.83-97.83c-16.663-16.661-43.677-16.661-60.34 0s-16.662 43.678 0 60.339l170.667 170.667z" />
<glyph unicode="&#xe958;" glyph-name="arrow-square-up-left" d="M761.109 874.667h-498.22c-22.491 0.001-41.895 0.001-57.877-1.304-16.868-1.378-33.645-4.421-49.789-12.647-24.085-12.272-43.666-31.853-55.938-55.938-8.226-16.144-11.269-32.922-12.647-49.789-1.306-15.982-1.305-35.384-1.304-57.875v-498.222c-0.001-22.494-0.001-41.899 1.304-57.877 1.378-16.87 4.421-33.647 12.647-49.792 12.272-24.085 31.853-43.665 55.938-55.936 16.144-8.226 32.922-11.268 49.789-12.646 15.982-1.306 35.385-1.306 57.876-1.306h498.225c22.49 0 41.894 0 57.873 1.306 16.87 1.378 33.647 4.42 49.792 12.646 24.085 12.271 43.665 31.851 55.936 55.936 8.226 16.145 11.268 32.922 12.646 49.792 1.306 15.979 1.306 35.383 1.306 57.873v498.225c0 22.491 0 41.894-1.306 57.876-1.378 16.868-4.42 33.645-12.646 49.789-12.271 24.085-31.851 43.666-55.936 55.938-16.145 8.226-32.922 11.269-49.792 12.647-15.979 1.306-35.383 1.305-57.877 1.304zM341.344 576c0 23.564 19.102 42.667 42.667 42.667h255.998c23.565 0 42.667-19.103 42.667-42.667s-19.102-42.667-42.667-42.667h-153.003l183.164-183.164c16.661-16.661 16.661-43.678 0-60.339s-43.678-16.661-60.339 0l-183.155 183.151v-152.981c0-23.565-19.101-42.667-42.665-42.667s-42.667 19.102-42.667 42.667v256z" />
<glyph unicode="&#xe959;" glyph-name="arrow-square-up-right" d="M761.109 874.667h-498.22c-22.491 0.001-41.895 0.001-57.877-1.304-16.868-1.378-33.645-4.421-49.789-12.647-24.085-12.272-43.666-31.853-55.938-55.938-8.226-16.144-11.269-32.922-12.647-49.789-1.306-15.982-1.305-35.384-1.304-57.875v-498.222c-0.001-22.494-0.001-41.899 1.304-57.877 1.378-16.87 4.421-33.647 12.647-49.792 12.272-24.085 31.853-43.665 55.938-55.936 16.144-8.226 32.922-11.268 49.789-12.646 15.982-1.306 35.385-1.306 57.876-1.306h498.225c22.49 0 41.894 0 57.873 1.306 16.87 1.378 33.647 4.42 49.792 12.646 24.085 12.271 43.665 31.851 55.936 55.936 8.226 16.145 11.268 32.922 12.646 49.792 1.306 15.979 1.306 35.383 1.306 57.873v498.225c0 22.491 0 41.894-1.306 57.876-1.378 16.868-4.42 33.645-12.646 49.789-12.271 24.085-31.851 43.666-55.936 55.938-16.145 8.226-32.922 11.269-49.792 12.647-15.979 1.306-35.383 1.305-57.877 1.304zM341.344 576c0 23.564 19.102 42.667 42.667 42.667h255.998c23.565 0 42.667-19.103 42.667-42.667v-256c0-23.565-19.102-42.667-42.667-42.667-23.561 0-42.667 19.102-42.667 42.667v153.003l-183.172-183.172c-16.663-16.661-43.677-16.661-60.34 0s-16.662 43.678 0 60.339l183.164 183.164h-152.983c-23.564 0-42.667 19.102-42.667 42.667z" />
<glyph unicode="&#xe95a;" glyph-name="arrows-right" d="M499.503 862.17c-16.661 16.662-43.678 16.662-60.339 0-16.663-16.663-16.663-43.677 0-60.34l97.83-97.83h-366.327c-23.564 0-42.667-19.103-42.667-42.667s19.103-42.667 42.667-42.667h366.327l-97.83-97.83c-16.663-16.661-16.663-43.678 0-60.339 16.661-16.661 43.678-16.661 60.339 0l170.667 170.666c16.661 16.663 16.661 43.677 0 60.34l-170.667 170.667zM128 234.667c0 23.565 19.103 42.667 42.667 42.667h579.661l-97.83 97.83c-16.661 16.661-16.661 43.678 0 60.339s43.678 16.661 60.339 0l170.667-170.667c16.661-16.661 16.661-43.678 0-60.339l-170.667-170.667c-16.661-16.661-43.678-16.661-60.339 0s-16.661 43.678 0 60.339l97.83 97.83h-579.661c-23.564 0-42.667 19.102-42.667 42.667z" />
<glyph unicode="&#xe95b;" glyph-name="arrows-triangle" d="M461.107 871.135c32.469 14.070 69.316 14.070 101.786 0 22.78-9.872 39.279-27.741 53.402-46.711 13.901-18.678 29.197-43.706 47.543-73.731l42.453-69.471 20.497 76.485c6.097 22.761 29.491 36.269 52.254 30.17s36.271-29.495 30.17-52.256l-46.852-174.851c-6.097-22.761-29.491-36.268-52.254-30.171l-174.852 46.853c-22.758 6.099-36.267 29.495-30.17 52.256 6.101 22.761 29.495 36.269 52.258 30.17l74.129-19.863-39.377 64.433c-19.695 32.227-32.969 53.863-44.254 69.025-11.337 15.232-16.862 18.493-18.876 19.365-10.825 4.69-23.104 4.69-33.929 0-2.014-0.872-7.539-4.133-18.88-19.365-11.285-15.162-24.559-36.798-44.25-69.026l-43.514-71.202c-12.288-20.107-38.548-26.446-58.655-14.158s-26.446 38.548-14.159 58.655l44.582 72.952c18.348 30.026 33.642 55.053 47.545 73.731 14.121 18.97 30.618 36.839 53.402 46.711zM132.112 377.519l40.917 66.957-76.653-20.54c-22.761-6.097-46.157 7.407-52.256 30.17s7.409 46.157 30.17 52.254l174.851 46.853c10.93 2.929 22.577 1.396 32.376-4.262s16.951-14.977 19.88-25.908l0.254-0.947c0.844-2.325 1.485-4.719 1.917-7.155l44.68-166.75c6.099-22.758-7.409-46.157-30.17-52.254s-46.157 7.407-52.256 30.17l-19.851 74.086-39.953-65.378c-21.189-34.675-35.5-58.176-44.499-76.471-9.132-18.569-9.383-25.344-9.203-27.396 1.067-12.194 7.319-23.343 17.168-30.609 1.658-1.225 7.569-4.544 28.173-6.434 20.307-1.86 47.821-1.903 88.456-1.903h76.553c23.564 0 42.667-19.102 42.667-42.667s-19.103-42.667-42.667-42.667h-78.651c-38.006 0-69.474-0.004-94.154 2.261-24.835 2.278-50.115 7.3-71.051 22.75-29.546 21.807-48.303 55.253-51.504 91.831-2.267 25.924 6.632 50.112 17.638 72.491 10.938 22.238 27.347 49.092 47.166 81.519zM848.26 448.913c-12.288 20.109-38.549 26.445-58.658 14.161-20.105-12.288-26.445-38.549-14.157-58.658l42.534-69.602c21.193-34.675 35.503-58.172 44.501-76.471 9.131-18.569 9.382-25.344 9.203-27.396-1.067-12.194-7.322-23.343-17.169-30.609-1.655-1.225-7.569-4.54-28.173-6.434-20.305-1.86-47.821-1.903-88.457-1.903h-101.547l55.164 55.164c16.661 16.661 16.661 43.678 0 60.339s-43.678 16.661-60.339 0l-128-128c-16.661-16.661-16.661-43.678 0-60.339l128-128c16.661-16.661 43.678-16.661 60.339 0s16.661 43.678 0 60.339l-55.164 55.164h103.646c38.003 0 69.474-0.004 94.153 2.261 24.836 2.278 50.116 7.3 71.053 22.75 29.542 21.807 48.303 55.253 51.503 91.831 2.266 25.924-6.635 50.112-17.638 72.491-10.935 22.238-27.345 49.084-47.159 81.506l-43.635 71.407z" />
<glyph unicode="&#xe95c;" glyph-name="arrows-up" d="M328.837 819.503c-16.663 16.662-43.677 16.662-60.34 0l-170.667-170.667c-16.662-16.663-16.662-43.677 0-60.34s43.677-16.662 60.34 0l97.83 97.83v-579.66c0-23.565 19.103-42.667 42.667-42.667s42.667 19.102 42.667 42.667v579.66l97.83-97.83c16.661-16.662 43.678-16.662 60.339 0s16.661 43.677 0 60.34l-170.666 170.667zM755.503 606.17c-16.661 16.662-43.678 16.662-60.339 0l-170.667-170.667c-16.661-16.661-16.661-43.678 0-60.339s43.678-16.661 60.339 0l97.83 97.83v-366.327c0-23.565 19.102-42.667 42.667-42.667s42.667 19.102 42.667 42.667v366.327l97.83-97.83c16.661-16.661 43.678-16.661 60.339 0s16.661 43.678 0 60.339l-170.667 170.667z" />
<glyph unicode="&#xe95d;" glyph-name="arrow-up" d="M542.17 776.837c-16.661 16.662-43.678 16.662-60.339 0l-298.667-298.667c-16.662-16.661-16.662-43.678 0-60.339s43.677-16.661 60.34 0l225.83 225.83v-494.327c0-23.565 19.102-42.667 42.667-42.667s42.667 19.102 42.667 42.667v494.327l225.83-225.83c16.661-16.661 43.678-16.661 60.339 0s16.661 43.678 0 60.339l-298.667 298.667z" />
<glyph unicode="&#xe95e;" glyph-name="arrow-up-left" d="M298.667 704c-23.564 0-42.667-19.103-42.667-42.667v-426.667c0-23.565 19.103-42.667 42.667-42.667s42.667 19.102 42.667 42.667v323.66l353.83-353.83c16.661-16.661 43.678-16.661 60.339 0s16.661 43.678 0 60.339l-353.83 353.83h323.66c23.565 0 42.667 19.103 42.667 42.667s-19.102 42.667-42.667 42.667h-426.667z" />
<glyph unicode="&#xe95f;" glyph-name="arrow-up-right" d="M298.667 704c-23.564 0-42.667-19.103-42.667-42.667s19.103-42.667 42.667-42.667h323.661l-353.831-353.83c-16.662-16.661-16.662-43.678 0-60.339s43.677-16.661 60.34 0l353.83 353.83v-323.66c0-23.565 19.102-42.667 42.667-42.667s42.667 19.102 42.667 42.667v426.667c0 23.564-19.102 42.667-42.667 42.667h-426.667z" />
<glyph unicode="&#xe960;" glyph-name="asterisk-01" d="M554.667 874.667c0 23.564-19.102 42.667-42.667 42.667s-42.667-19.103-42.667-42.667v-323.662l-228.863 228.863c-16.662 16.663-43.677 16.663-60.34 0s-16.663-43.677 0-60.34l228.861-228.861h-323.659c-23.564 0-42.667-19.102-42.667-42.667s19.103-42.667 42.667-42.667h323.661l-228.863-228.864c-16.663-16.661-16.663-43.678 0-60.339s43.677-16.661 60.34 0l228.863 228.864v-323.661c0-23.565 19.102-42.667 42.667-42.667s42.667 19.102 42.667 42.667v323.661l228.864-228.864c16.661-16.661 43.674-16.661 60.339 0 16.661 16.661 16.661 43.678 0 60.339l-228.864 228.864h323.661c23.565 0 42.667 19.102 42.667 42.667s-19.102 42.667-42.667 42.667h-323.661l228.864 228.861c16.661 16.662 16.661 43.677 0 60.34-16.666 16.663-43.678 16.663-60.339 0l-228.864-228.862v323.661z" />
<glyph unicode="&#xe961;" glyph-name="asterisk-02" d="M554.667 789.333c0 23.564-19.102 42.667-42.667 42.667s-42.667-19.103-42.667-42.667v-238.327l-183.163 183.164c-16.663 16.662-43.677 16.662-60.34 0s-16.662-43.677 0-60.34l183.164-183.163h-238.327c-23.564 0-42.667-19.102-42.667-42.667s19.103-42.667 42.667-42.667h238.327l-183.164-183.164c-16.662-16.661-16.662-43.678 0-60.339s43.677-16.661 60.34 0l183.163 183.164v-238.327c0-23.565 19.102-42.667 42.667-42.667s42.667 19.102 42.667 42.667v238.327l183.164-183.164c16.661-16.661 43.678-16.661 60.339 0s16.661 43.678 0 60.339l-183.164 183.164h238.327c23.565 0 42.667 19.102 42.667 42.667s-19.102 42.667-42.667 42.667h-238.327l183.164 183.163c16.661 16.663 16.661 43.677 0 60.34s-43.678 16.662-60.339 0l-183.164-183.164v238.327z" />
<glyph unicode="&#xe962;" glyph-name="atom-01" d="M512 512c-35.345 0-64-28.655-64-64s28.655-64 64-64c35.345 0 64 28.655 64 64s-28.655 64-64 64zM645.086 850.121c-42.581-17.534-87.518-41.788-133.090-71.908-45.568 30.118-90.504 54.371-133.085 71.905-49.498 20.382-97.847 32.524-141.463 32.851-43.826 0.329-86.32-11.424-117.658-42.762s-43.091-73.832-42.762-117.658c0.327-43.616 12.47-91.964 32.851-141.463 17.533-42.581 41.787-87.519 71.905-133.087-30.119-45.568-54.372-90.505-71.906-133.086-20.382-49.498-32.524-97.847-32.851-141.461-0.329-43.827 11.424-86.323 42.762-117.658 31.338-31.339 73.832-43.093 117.658-42.765 43.616 0.329 91.964 12.471 141.463 32.853 42.581 17.532 87.517 41.783 133.085 71.902 45.572-30.118 90.509-54.374 133.090-71.906 49.498-20.382 97.847-32.525 141.461-32.853 43.827-0.329 86.323 11.426 117.662 42.765 31.334 31.339 43.089 73.83 42.761 117.658-0.329 43.614-12.471 91.964-32.853 141.461-17.532 42.581-41.788 87.522-71.906 133.090 30.118 45.568 54.374 90.508 71.906 133.090 20.382 49.498 32.525 97.847 32.853 141.463 0.329 43.826-11.426 86.32-42.765 117.658-31.334 31.338-73.83 43.091-117.658 42.762-43.614-0.327-91.964-12.469-141.461-32.851zM677.577 771.215c-28.885-11.894-59.601-27.625-91.315-46.919 36.053-28.543 71.919-60.442 106.756-95.279s66.735-70.701 95.275-106.752c19.294 31.714 35.025 62.429 46.921 91.315 17.835 43.316 26.206 80.492 26.423 109.612 0.218 28.908-7.45 46.36-17.771 56.678-10.317 10.319-27.767 17.988-56.678 17.771-29.12-0.218-66.295-8.59-109.611-26.426zM188.785 613.577c11.894-28.885 27.624-59.599 46.916-91.312 28.543 36.052 60.441 71.919 95.278 106.755s70.701 66.733 106.755 95.275c-31.716 19.293-62.429 35.023-91.314 46.916-43.316 17.836-80.492 26.208-109.612 26.426-28.908 0.217-46.36-7.453-56.678-17.771s-17.988-27.77-17.771-56.678c0.218-29.12 8.59-66.296 26.426-109.612zM391.319 568.681c-39.756-39.756-74.969-80.494-105.136-120.681 30.167-40.188 65.38-80.926 105.136-120.683 39.755-39.753 80.489-74.965 120.677-105.131 40.188 30.165 80.926 65.378 120.683 105.135 39.753 39.757 74.965 80.491 105.135 120.678-30.17 40.188-65.378 80.922-105.135 120.678s-80.495 74.97-120.683 105.136c-40.188-30.166-80.922-65.379-120.677-105.133zM188.785 282.423c11.894 28.885 27.624 59.601 46.917 91.315 28.543-36.058 60.442-71.923 95.278-106.761 34.835-34.833 70.701-66.731 106.755-95.275-31.716-19.29-62.43-35.021-91.315-46.916-43.316-17.835-80.492-26.206-109.612-26.423-28.908-0.218-46.36 7.45-56.678 17.771-10.319 10.317-17.988 27.767-17.771 56.678 0.218 29.12 8.59 66.295 26.426 109.611zM677.577 124.783c-28.885 11.895-59.601 27.627-91.315 46.921 36.053 28.544 71.919 60.442 106.756 95.279s66.735 70.703 95.275 106.756c19.294-31.718 35.025-62.434 46.921-91.319 17.835-43.315 26.206-80.491 26.428-109.611 0.213-28.907-7.454-46.362-17.775-56.678-10.317-10.317-27.767-17.988-56.678-17.771-29.116 0.218-66.295 8.589-109.611 26.423z" />
<glyph unicode="&#xe963;" glyph-name="atom-02" d="M512 533.333c-47.13 0-85.333-38.204-85.333-85.333s38.204-85.333 85.333-85.333c47.13 0 85.333 38.204 85.333 85.333s-38.204 85.333-85.333 85.333zM109.286 541.743c9.109-30.971 21.738-62.724 37.635-94.63-31.988-64.209-51.253-128.819-54.356-188.215-3.434-65.741 13.001-128.538 58.284-173.82 66.203-66.206 168.277-70.72 267.411-41.562 30.969 9.109 62.722 21.734 94.628 37.632 31.902-15.898 63.659-28.523 94.626-37.632 99.132-29.158 201.207-24.644 267.409 41.562 66.206 66.202 70.72 168.277 41.562 267.409-9.109 30.967-21.734 62.724-37.632 94.626 33.216 66.671 52.796 133.962 54.656 195.439 1.903 63.069-14.976 122.993-58.581 166.602-66.206 66.203-168.277 70.718-267.413 41.561-30.967-9.108-62.72-21.737-94.626-37.634-31.906 15.897-63.663 28.525-94.63 37.634-99.133 29.157-201.208 24.642-267.411-41.561s-70.718-168.277-41.561-267.411zM394.179 768.849c-86.496 25.44-149.222 13.736-182.993-20.035s-45.475-96.497-20.035-182.993c24.921-84.733 83.295-181.966 170.884-269.556 48.576-48.576 100.121-88.166 150.852-118.046 50.731 29.879 102.272 69.47 150.848 118.046 12.062 12.062 23.582 24.32 34.556 36.727 15.612 17.647 42.573 19.302 60.224 3.691s19.307-42.577 3.695-60.228c-12.13-13.709-24.845-27.243-38.135-40.529-38.549-38.554-79.296-72.452-120.811-101.133 9.574-3.537 19.025-6.677 28.326-9.412 86.494-25.438 149.222-13.734 182.993 20.036s45.474 96.499 20.036 182.993c-24.922 84.732-83.294 181.965-170.884 269.555-48.576 48.576-100.117 88.166-150.848 118.048-50.731-29.882-102.274-69.472-150.85-118.048-12.606-12.607-24.627-25.433-36.044-38.414-15.562-17.694-42.522-19.423-60.216-3.861s-19.423 42.522-3.861 60.216c12.623 14.352 25.89 28.507 39.781 42.398 38.551 38.551 79.298 72.452 120.812 101.132-9.574 3.537-19.028 6.676-28.33 9.412zM301.696 235.925c38.552-38.554 79.299-72.452 120.813-101.133-9.574-3.537-19.026-6.677-28.328-9.412-86.495-25.438-149.222-13.734-182.993 20.036-23.256 23.258-35.995 59.465-33.406 109.030 1.609 30.805 9.166 65.425 22.782 102.289 28.681-41.51 62.581-82.257 101.132-120.811zM848.213 645.129c-0.969-32.068-8.567-68.559-23.006-107.639-28.681 41.515-62.579 82.263-101.133 120.815s-79.3 72.452-120.811 101.132c9.574 3.537 19.025 6.676 28.331 9.412 86.494 25.44 149.222 13.736 182.993-20.035 22.426-22.429 35.042-56.827 33.626-103.685z" />
<glyph unicode="&#xe964;" glyph-name="at-sign" d="M618.662 905.026c-103.155 24.073-211.421 12.543-307.192-32.716s-173.417-121.585-220.309-216.567c-46.893-94.982-60.276-203.033-37.973-306.589 22.303-103.552 78.98-196.514 160.815-263.77 81.836-67.26 184.016-104.853 289.929-106.675 105.911-1.822 209.323 32.239 293.423 96.644 18.709 14.327 22.259 41.105 7.932 59.814s-41.105 22.259-59.814 7.932c-68.809-52.693-153.421-80.559-240.073-79.070-86.657 1.489-170.259 32.252-237.216 87.279s-113.328 131.089-131.576 215.812c-18.248 84.727-7.298 173.133 31.069 250.846s101.894 140.161 180.253 177.191c78.359 37.030 166.941 46.464 251.34 26.767s159.654-67.365 213.525-135.254c53.875-67.889 83.2-152.007 83.204-238.676v-42.662c0-22.63-8.99-44.335-24.994-60.339s-37.709-24.994-60.339-24.994c-22.63 0-44.335 8.99-60.339 24.994s-24.994 37.709-24.994 60.339v213.334c0 23.564-19.102 42.667-42.667 42.667-23.561 0-42.658-19.095-42.667-42.652-35.657 26.781-79.974 42.651-128 42.651-117.821 0-213.333-95.513-213.333-213.333s95.513-213.333 213.333-213.333c63.492 0 120.508 27.738 159.586 71.753 5.478-7.706 11.627-14.989 18.402-21.764 32.004-32.009 75.413-49.988 120.678-49.988s88.674 17.98 120.678 49.988c32.009 32.004 49.988 75.413 49.988 120.678v42.671c-0.009 105.926-35.849 208.736-101.692 291.712-65.847 82.976-157.824 141.236-260.979 165.31zM640 448.179v-0.358c-0.098-70.609-57.365-127.821-128-127.821-70.694 0-128 57.306-128 128s57.306 128 128 128c70.635 0 127.902-57.212 128-127.821z" />
</font>
</defs>
</svg>
